<?xml version="1.0" encoding="UTF-8"?>
<svg height="100%" width="100%" xmlns="http://www.w3.org/2000/svg">
	<defs>
		<font horiz-adv-x="551" id="web">
			<font-face alphabetic="0" ascent="987" descent="-223" font-family="" panose-1="2 11 6 4 2 2 2 2 2 4"/>
			<missing-glyph d="M-7 718H505V0H-7ZM43 667V50H455V667ZM252 609Q306 609 341 573T376 478Q376 446 364 421T312 357Q278 326 271 311Q264 294 264 234H218L216 253Q216 300 227 328T279 395Q325 436 325 474Q325 508 301 533T249 559Q179 559 167 464L117 472Q131 609 252 609ZM215 184H271V117H215Z" horiz-adv-x="498"/>
			<glyph d="" horiz-adv-x="228" unicode=" "/>
			<glyph d="M65 714H190V508L157 199H98L65 508ZM60 125H194V0H60Z" horiz-adv-x="254" unicode="!"/>
			<glyph d="M79 714H181V432H79ZM255 714H357V432H255Z" horiz-adv-x="435" unicode="&quot;"/>
			<glyph d="M188 700H269L239 490H350L379 700H460L430 490H516V415H420L402 285H487V210H392L362 0H282L311 210H201L171 0H91L120 210H26V285H131L149 415H55V490H159ZM229 415L211 285H322L340 415Z" horiz-adv-x="542" unicode="#"/>
			<glyph d="M246 809H289V731Q392 730 450 677T508 536H394Q391 590 366 615T291 641H289V430Q422 395 474 343T526 208Q526 107 464 48T289 -17V-95H246V-17Q131 -12 67 47T4 209V217H118V215Q118 78 246 73V315Q125 346 72 398T19 535Q19 623 84 677T246 731ZM243 641Q133 641 133 543Q133 467 246 441V641ZM289 306V73Q412 81 412 191Q412 237 383 263T289 306Z" horiz-adv-x="529" unicode="$"/>
			<glyph d="M633 724H709L322 -24H244ZM233 714Q311 714 355 661T400 515Q400 421 357 368T233 316Q152 316 109 367T66 515Q66 606 110 660T233 714ZM232 649Q156 649 156 515Q156 381 232 381Q270 381 290 416T310 515Q310 649 232 649ZM735 384Q811 384 856 331T902 185Q902 91 859 38T735 -14Q654 -14 611 38T568 185Q568 278 613 331T735 384ZM734 319Q658 319 658 185Q658 51 734 51Q772 51 792 86T812 185Q812 319 734 319Z" horiz-adv-x="966" unicode="%"/>
			<glyph d="M294 731Q373 731 422 684T472 560Q472 450 344 379L454 245Q470 290 476 341H576Q562 231 520 166L657 0H517L453 79H452Q375 -14 252 -14Q150 -14 88 44T27 198Q27 319 191 405Q154 452 136 486T119 561Q119 635 169 683T294 731ZM296 646Q264 646 242 624T221 567Q221 539 236 514T286 448Q331 477 350 503T370 564Q370 600 350 623T296 646ZM251 330Q175 288 158 260T141 196Q141 141 171 108T256 76Q301 76 332 94T391 156Z" horiz-adv-x="640" unicode="&amp;"/>
			<glyph d="M87 714H189V432H87Z" horiz-adv-x="275" unicode="'"/>
			<glyph d="M188 731H281Q158 511 158 270Q158 16 281 -191H188Q109 -64 76 42T44 270Q44 508 188 731Z" horiz-adv-x="270" unicode="("/>
			<glyph d="M-11 731H82Q156 614 191 502T226 270Q226 28 82 -191H-11Q112 30 112 269Q112 520 -11 731Z" horiz-adv-x="271" unicode=")"/>
			<glyph d="M148 714H216V594L325 637L349 572L235 534L305 440L252 401L181 499L113 401L57 440L127 534L16 572L38 637L148 594Z" horiz-adv-x="366" unicode="*"/>
			<glyph d="M242 506H344V304H545V202H344V0H242V202H41V304H242Z" horiz-adv-x="586" unicode="+"/>
			<glyph d="M40 135H179V4Q179 -56 145 -99T44 -158V-97Q73 -89 91 -64T109 0H40Z" horiz-adv-x="219" unicode=","/>
			<glyph d="M48 326H339V218H48Z" horiz-adv-x="388" unicode="-"/>
			<glyph d="M40 135H179V0H40Z" horiz-adv-x="219" unicode="."/>
			<glyph d="M269 731H378L91 -17H-18Z" horiz-adv-x="360" unicode="/"/>
			<glyph d="M282 714Q403 714 463 619T524 350Q524 177 462 81T282 -14Q162 -14 101 81T40 350Q40 525 101 619T282 714ZM281 619Q154 619 154 350Q154 81 282 81Q410 81 410 350Q410 619 281 619Z" horiz-adv-x="563" unicode="0"/>
			<glyph d="M246 700H339V0H214V494H42V584Q131 584 183 615T246 700Z" horiz-adv-x="415" unicode="1"/>
			<glyph d="M281 714Q381 714 443 655T506 499Q506 432 467 372T305 234Q227 185 199 156T164 102H505V0H27Q27 162 187 269L293 343Q392 417 392 496Q392 555 361 587T274 619Q216 619 186 577T154 444H40Q42 571 107 642T281 714Z" horiz-adv-x="534" unicode="2"/>
			<glyph d="M283 714Q381 714 442 661T504 527Q504 414 405 377V375Q466 361 499 314T532 200Q532 106 460 46T284 -14Q171 -14 107 47T38 230H152V221Q152 160 186 120T284 81Q343 81 380 114T418 206Q418 268 379 296T252 325H235V410H246Q313 410 351 438T390 520Q390 567 358 593T281 619Q230 619 197 581T165 485V476H51Q57 586 120 650T283 714Z" horiz-adv-x="565" unicode="3"/>
			<glyph d="M322 700H430V256H520V166H430V0H322V166H22V279ZM320 564L110 256H322V564Z" horiz-adv-x="543" unicode="4"/>
			<glyph d="M115 700H477V598H200L164 420L166 418Q190 444 225 457T296 471Q395 471 454 406T514 237Q514 128 447 57T272 -14Q165 -14 98 43T27 199H141Q146 142 180 111T270 81Q334 81 367 120T400 234Q400 297 365 339T267 381Q178 381 154 317H40Z" horiz-adv-x="547" unicode="5"/>
			<glyph d="M305 714Q390 714 451 659T516 523H402Q398 567 371 593T300 619Q268 619 244 606T203 569T174 507T155 379L157 377Q180 419 220 439T308 460Q408 460 468 393T529 225Q529 119 463 52T296 -14Q169 -14 105 71T41 351Q41 515 112 614T305 714ZM291 370Q237 370 201 330T166 227Q166 164 200 122T292 81Q347 81 381 122T415 227Q415 288 381 329T291 370Z" horiz-adv-x="562" unicode="6"/>
			<glyph d="M-2 700H477V605Q359 473 294 326T216 1V0H91Q103 160 174 313T361 598H-2Z" horiz-adv-x="476" unicode="7"/>
			<glyph d="M285 714Q388 714 445 664T503 523Q503 418 404 379V377Q464 361 498 316T532 206Q532 107 463 46T285 -14Q178 -14 108 45T38 206Q38 270 72 315T166 377V379Q67 416 67 523Q67 615 124 664T285 714ZM284 624Q237 624 206 595T175 517Q175 469 204 441T285 414Q338 414 366 443T395 517Q395 566 364 595T284 624ZM284 329Q227 329 189 296T152 206Q152 147 188 111T285 76Q345 76 381 111T418 206Q418 262 380 295T284 329Z" horiz-adv-x="569" unicode="8"/>
			<glyph d="M273 714Q395 714 457 628T520 349Q520 185 449 85T256 -14Q170 -14 109 41T45 177H159Q163 134 190 107T261 81Q308 81 337 107T381 177T406 321L404 323Q381 282 340 260T253 239Q154 239 93 304T32 475Q32 582 99 648T273 714ZM267 619Q212 619 179 579T146 476Q146 412 179 370T268 329Q326 329 360 370T395 476Q395 539 359 579T267 619Z" horiz-adv-x="562" unicode="9"/>
			<glyph d="M66 506H205V371H66ZM66 135H205V0H66Z" horiz-adv-x="271" unicode=":"/>
			<glyph d="M65 506H204V371H65ZM65 135H204V0Q204 -56 170 -99T69 -158V-97Q134 -79 134 0H65Z" horiz-adv-x="270" unicode=";"/>
			<glyph d="M547 514V412L173 253L547 94V-8L39 217V289Z" horiz-adv-x="586" unicode="&lt;"/>
			<glyph d="M41 405H545V303H41ZM41 203H545V101H41Z" horiz-adv-x="585" unicode="="/>
			<glyph d="M39 514L547 289V217L39 -8V94L413 253L39 412Z" horiz-adv-x="586" unicode="&gt;"/>
			<glyph d="M273 731Q369 731 430 675T491 529Q491 473 471 437T400 360Q352 321 333 287T315 194H207V198Q207 283 227 323Q246 368 292 403Q332 435 349 459T366 525Q366 571 336 603T268 636Q211 636 179 599T148 487H33Q33 595 97 663T273 731ZM192 125H326V0H192Z" horiz-adv-x="523" unicode="?"/>
			<glyph d="M399 731Q489 731 566 692T688 589T734 437Q734 350 699 285T607 181T498 140Q472 140 456 156T439 198H437Q384 142 325 141Q263 141 221 188T179 298Q179 363 208 424T287 521T398 557Q474 557 510 485L528 542H598L520 257L517 233Q518 210 536 210Q588 210 627 276T666 426Q666 532 592 598T399 666Q321 665 259 631T155 529T112 366Q113 224 194 136T408 48Q472 48 531 73T633 147H703Q654 69 576 26T404 -17Q301 -17 215 33T81 171T32 370Q32 467 81 550T215 682T399 731ZM401 482Q346 482 306 428T264 307Q264 266 286 241T344 216Q379 216 410 241T461 310T481 394Q480 431 457 456T401 482Z" horiz-adv-x="767" unicode="@"/>
			<glyph d="M266 714H399L674 0H540L473 189H188L121 0H-8ZM330 591L222 284H440L333 591Z" horiz-adv-x="666" unicode="A"/>
			<glyph d="M61 714H412Q511 714 565 667T620 537Q620 431 518 385V383Q583 369 617 320T652 199Q652 106 584 53T394 0H61ZM186 612V415H392Q435 415 465 440T495 515Q495 612 394 612ZM186 325V102H410Q464 102 495 131T527 215Q527 270 494 297T410 325Z" horiz-adv-x="681" unicode="B"/>
			<glyph d="M372 731Q499 731 581 664T675 487H550Q513 629 372 629Q271 629 213 554T155 357Q155 232 215 158T372 85Q449 85 496 135T554 272H676Q666 143 585 63T372 -17Q223 -17 126 87T30 357Q30 521 125 626T372 731Z" horiz-adv-x="698" unicode="C"/>
			<glyph d="M62 714H363Q506 714 589 617T673 357Q673 190 589 95T361 0H62ZM187 612V102H315Q436 102 492 163T548 357Q548 492 490 552T316 612Z" horiz-adv-x="704" unicode="D"/>
			<glyph d="M62 714H576V606H187V419H547V317H187V108H583V0H62Z" horiz-adv-x="619" unicode="E"/>
			<glyph d="M62 714H555V606H187V419H510V317H187V0H62Z" horiz-adv-x="573" unicode="F"/>
			<glyph d="M371 731Q497 731 579 666T677 487H555Q546 552 493 590T371 629Q272 629 213 554T154 357Q154 232 213 158T375 85Q469 85 519 137T571 281H381V376H685V0H605L586 84Q540 31 490 7T371 -17Q220 -17 124 88T29 357Q29 519 124 625T371 731Z" horiz-adv-x="740" unicode="G"/>
			<glyph d="M62 714H187V430H512V714H637V0H512V322H187V0H62Z" horiz-adv-x="698" unicode="H"/>
			<glyph d="M63 714H188V0H63Z" horiz-adv-x="252" unicode="I"/>
			<glyph d="M337 714H462V224Q462 102 407 42T228 -17Q126 -17 70 40T14 215V250H139V205Q139 139 164 112T237 85Q291 85 314 115T337 218Z" horiz-adv-x="524" unicode="J"/>
			<glyph d="M62 714H187V389L505 714H659L374 429L679 0H523L289 341L187 240V0H62Z" horiz-adv-x="672" unicode="K"/>
			<glyph d="M62 714H187V108H550V0H62Z" horiz-adv-x="573" unicode="L"/>
			<glyph d="M61 714H237L434 155H436L628 714H802V0H683V551H681L483 0H380L182 551H180V0H61Z" horiz-adv-x="863" unicode="M"/>
			<glyph d="M61 714H193L519 188H521V714H640V0H508L183 525H180V0H61Z" horiz-adv-x="701" unicode="N"/>
			<glyph d="M370 731Q521 731 616 625T712 357Q712 194 616 88T370 -17Q217 -17 122 89T28 357Q28 519 123 625T370 731ZM369 629Q269 629 211 554T153 357Q153 236 211 160T370 85Q470 85 528 159T587 357Q587 480 528 554T369 629Z" horiz-adv-x="740" unicode="O"/>
			<glyph d="M62 714H382Q497 714 558 655T620 493Q620 388 558 331T382 274H187V0H62ZM187 612V376H373Q428 376 461 409T495 494Q495 612 376 612Z" horiz-adv-x="641" unicode="P"/>
			<glyph d="M370 731Q468 731 547 682T669 548T712 357Q712 272 684 199T611 83L703 3L642 -65L538 26Q467 -17 370 -17Q217 -17 122 89T28 357Q28 520 124 625T370 731ZM369 629Q269 629 211 554T153 357Q153 236 211 160T370 85Q414 85 450 102L378 165L438 234L524 159H526Q587 234 587 357Q587 480 528 554T369 629Z" horiz-adv-x="740" unicode="Q"/>
			<glyph d="M62 714H408Q516 714 577 665T639 521Q639 382 521 341V339Q573 332 600 292T627 186Q627 45 666 0H532Q513 27 513 106Q513 218 480 256T375 294H187V0H62ZM187 612V389H395Q514 389 514 503Q514 559 485 585T394 612Z" horiz-adv-x="687" unicode="R"/>
			<glyph d="M307 731Q429 731 505 668T581 503H456V504Q444 629 302 629Q245 629 208 605T171 536Q171 466 262 442L453 392Q518 375 559 324T601 207Q601 106 524 44T317 -17Q182 -17 101 50T19 238H144Q145 161 194 123T325 85Q397 85 436 115T476 193Q476 262 417 281Q377 294 213 337Q46 378 46 521Q46 617 119 674T307 731Z" horiz-adv-x="622" unicode="S"/>
			<glyph d="M16 714H594V606H367V0H242V606H16Z" horiz-adv-x="611" unicode="T"/>
			<glyph d="M57 714H182V292Q182 181 222 136T350 91Q438 91 478 135T518 289V714H643V252Q643 124 564 53T350 -17Q215 -17 136 54T57 252Z" horiz-adv-x="701" unicode="U"/>
			<glyph d="M-5 714H125L304 149H306L489 714H616L372 0H233Z" horiz-adv-x="611" unicode="V"/>
			<glyph d="M-6 714H121L250 168H252L396 714H524L664 168H666L799 714H926L729 0H602L459 546H457L311 0H182Z" horiz-adv-x="921" unicode="W"/>
			<glyph d="M8 714H157L319 462L488 714H628L392 370L645 0H493L315 273L134 0H-9L244 370Z" horiz-adv-x="636" unicode="X"/>
			<glyph d="M-18 714H127L316 394L502 714H642L375 280V0H250V280Z" horiz-adv-x="625" unicode="Y"/>
			<glyph d="M54 714H597V619L181 108H607V0H22V102L438 606H54Z" horiz-adv-x="629" unicode="Z"/>
			<glyph d="M63 731H286V641H171V-101H286V-191H63Z" horiz-adv-x="282" unicode="["/>
			<glyph d="M-18 731H91L378 -17H269Z" horiz-adv-x="360" unicode="\"/>
			<glyph d="M-4 731H219V-191H-4V-101H111V641H-4Z" horiz-adv-x="283" unicode="]"/>
			<glyph d="M228 700H300L480 335H378L264 582L150 335H48Z" horiz-adv-x="529" unicode="^"/>
			<glyph d="M-7 -75H493V-125H-7Z" horiz-adv-x="486" unicode="_"/>
			<glyph d="M-49 732H85L176 589H93Z" horiz-adv-x="216" unicode="`"/>
			<glyph d="M279 531Q375 530 430 490T486 384V112Q486 92 492 84T517 76Q533 76 541 78V-1Q493 -14 469 -14Q393 -14 381 49Q352 20 302 3T202 -14Q121 -14 73 28T25 137Q25 208 66 246T220 298L267 304Q320 310 340 317T370 337T379 371Q379 440 272 441Q167 440 158 359H44Q50 444 110 487T279 531ZM372 259Q345 241 295 236L246 230Q139 218 139 147Q139 114 166 95T237 76Q296 76 334 103T372 171Z" horiz-adv-x="552" unicode="a"/>
			<glyph d="M49 714H163V450H165Q190 488 232 509T319 531Q431 531 496 456T561 256Q561 134 501 60T338 -14Q207 -14 159 71H157V0H49ZM303 441Q235 441 197 392T159 258Q159 177 199 126T304 76Q370 76 408 125T447 258Q447 338 406 389T303 441Z" horiz-adv-x="594" unicode="b"/>
			<glyph d="M285 531Q386 531 448 482T518 344H404Q397 391 366 416T286 441Q220 441 182 394T144 253Q144 175 180 125T281 76Q330 76 362 105T404 194H518Q501 91 440 38T281 -14Q167 -14 98 57T30 253Q30 380 97 455T285 531Z" horiz-adv-x="540" unicode="c"/>
			<glyph d="M431 714H545V0H437V70H435Q390 -14 275 -14Q163 -14 98 61T33 262Q33 384 94 457T257 531Q313 531 359 509T429 450H431ZM291 441Q225 441 186 390T147 253Q147 176 186 126T290 76Q357 76 396 128T435 259Q435 344 397 392T291 441Z" horiz-adv-x="594" unicode="d"/>
			<glyph d="M276 531Q350 530 404 495T489 402T522 268Q522 253 520 229H140Q140 161 178 118T279 76Q330 76 360 98T405 162H513Q496 81 432 34T279 -14Q164 -14 95 59T26 257Q26 339 61 403T151 498T276 531ZM275 441Q218 441 181 403T140 304H406Q401 364 365 402T275 441Z" unicode="e"/>
			<glyph d="M225 714Q279 714 304 707V618Q286 624 252 624Q195 624 195 575V517H292V432H195V0H81V432H-4V517H81V564Q81 644 116 679T225 714Z" horiz-adv-x="296" unicode="f"/>
			<glyph d="M267 531Q380 531 420 446H422V517H536V22Q536 -87 473 -146T283 -205Q181 -205 119 -161T51 -44H165Q173 -82 201 -101T289 -120Q422 -120 422 9V91H420Q366 0 265 0Q155 0 94 71T33 271Q33 384 98 457T267 531ZM283 441Q218 441 182 391T147 261Q147 186 184 138T283 90Q348 90 385 139T422 270Q422 348 385 394T283 441Z" horiz-adv-x="585" unicode="g"/>
			<glyph d="M49 714H163V449H165Q190 488 231 509T321 531Q411 531 457 484T503 359V0H389V320Q389 441 288 441Q232 441 197 401T163 308V0H49Z" unicode="h"/>
			<glyph d="M52 714H166V606H52ZM52 517H166V0H52Z" horiz-adv-x="218" unicode="i"/>
			<glyph d="M56 714H170V606H56ZM56 517H170V-48Q170 -128 134 -166T21 -205Q-18 -205 -29 -201V-111Q-9 -115 10 -115Q37 -115 46 -100T56 -45Z" horiz-adv-x="229" unicode="j"/>
			<glyph d="M58 714H172V308L378 517H518L320 327L537 0H398L240 251L172 185V0H58Z" horiz-adv-x="528" unicode="k"/>
			<glyph d="M52 714H166V0H52Z" horiz-adv-x="218" unicode="l"/>
			<glyph d="M322 531Q373 531 411 509T467 445Q527 531 630 531Q802 531 802 361V0H688V312Q688 390 665 415T594 441Q484 441 484 307V0H370V336Q370 384 351 412T280 441Q231 441 198 403T166 310V0H52V517H160V445H163Q193 490 230 510T322 531Z" horiz-adv-x="853" unicode="m"/>
			<glyph d="M321 531Q411 531 457 484T503 359V0H389V323Q389 441 288 441Q232 441 197 402T163 308V0H49V517H157V441L159 439Q216 531 321 531Z" unicode="n"/>
			<glyph d="M289 531Q405 531 477 456T550 259Q550 134 478 60T289 -14Q170 -14 99 60T28 259Q28 381 99 456T289 531ZM288 441Q222 441 182 390T142 259Q142 180 182 128T289 76Q356 76 396 128T436 259Q436 341 396 391T288 441Z" horiz-adv-x="578" unicode="o"/>
			<glyph d="M319 531Q432 531 496 455T561 256Q561 136 500 61T338 -14Q280 -14 234 7T165 67H163V-191H49V517H157V447H159Q206 531 319 531ZM303 441Q235 441 197 392T159 258Q159 177 199 126T304 76Q370 76 408 125T447 258Q447 335 408 388T303 441Z" horiz-adv-x="587" unicode="p"/>
			<glyph d="M275 531Q391 531 435 447H437V517H545V-191H431V67H429Q374 -14 256 -14Q157 -14 95 60T33 256Q33 382 98 456T275 531ZM290 441Q230 441 188 390T147 258Q147 175 185 125T290 76Q361 76 398 124T435 258Q435 346 398 393T290 441Z" horiz-adv-x="593" unicode="q"/>
			<glyph d="M309 531Q344 531 352 528V418Q324 423 303 423Q238 422 200 372T163 250V0H49V517H156V417H158Q171 466 217 498T309 531Z" horiz-adv-x="347" unicode="r"/>
			<glyph d="M256 531Q349 531 406 490T472 372H353Q340 441 248 441Q206 441 180 427T154 388Q154 361 182 344T285 313Q392 293 440 257T489 154Q489 77 426 31T258 -14Q153 -14 92 33T29 166H143Q153 76 260 76Q375 76 375 141Q375 175 335 194T208 229Q40 261 40 383Q40 452 99 491T256 531Z" horiz-adv-x="512" unicode="s"/>
			<glyph d="M86 672H200V517H303V432H200V150Q200 109 211 97T257 85Q297 85 303 89V1Q252 -5 229 -5Q147 -5 116 25T86 134V432H0V517H86Z" horiz-adv-x="330" unicode="t"/>
			<glyph d="M49 517H163V196Q163 76 262 76Q389 76 389 213V517H503V0H391V72H389Q366 32 326 9T241 -14Q141 -14 95 35T49 184Z" unicode="u"/>
			<glyph d="M3 517H127L258 120H260L386 517H504L319 0H191Z" horiz-adv-x="507" unicode="v"/>
			<glyph d="M3 517H124L225 131H227L324 517H439L532 131H534L639 517H755L593 0H476L380 384H378L283 0H163Z" horiz-adv-x="758" unicode="w"/>
			<glyph d="M9 517H147L255 358L368 517H500L324 278L522 0H385L254 191L127 0H-7L188 272Z" horiz-adv-x="515" unicode="x"/>
			<glyph d="M3 517H128L263 131H265L396 517H515L316 -23Q280 -125 241 -165T130 -205Q94 -205 52 -199V-103Q98 -110 106 -110Q160 -110 177 -63L199 2Z" horiz-adv-x="518" unicode="y"/>
			<glyph d="M34 517H454V437L158 90H469V0H14V80L300 427H34Z" horiz-adv-x="481" unicode="z"/>
			<glyph d="M241 731H329V641H272Q218 641 218 574V374Q218 337 192 307T115 271V269Q166 265 192 236T218 161V-34Q218 -101 274 -101H329V-191H240Q189 -191 149 -151T110 -59V146Q110 180 82 201T16 225V315Q58 317 84 337T110 386V600Q110 650 150 690T241 731Z" horiz-adv-x="336" unicode="{"/>
			<glyph d="M60 786H162V-214H60Z" horiz-adv-x="222" unicode="|"/>
			<glyph d="M7 731H95Q145 731 185 690T226 598V394Q226 362 251 339T320 315V225Q277 225 251 204T226 149V-57Q226 -107 186 -149T95 -191H7V-101H62Q118 -101 118 -33V167Q118 250 222 269V271Q118 281 118 379V573Q118 641 60 641H7Z" horiz-adv-x="337" unicode="}"/>
			<glyph d="M186 338Q214 338 243 328T296 306T348 282T397 270Q427 270 448 287T487 338L523 254Q502 210 469 189T398 168Q370 168 346 175T291 197T235 224T187 236Q157 236 136 219T97 168L61 252Q104 337 186 338Z" horiz-adv-x="584" unicode="~"/>
			<glyph d="" horiz-adv-x="278" unicode=" "/>
			<glyph d="M60 531H194V406H60ZM98 332H157L190 21V-183H65V21Z" horiz-adv-x="254" unicode="¡"/>
			<glyph d="M256 621H299V531Q386 531 446 478T512 344H398Q391 389 364 415T299 441V76Q390 92 402 194H516Q499 94 444 40T299 -14V-104H256V-14Q154 -12 89 62T25 253Q25 377 89 454T256 531ZM256 441Q201 436 170 385T139 253Q139 184 169 134T256 76Z" horiz-adv-x="532" unicode="¢"/>
			<glyph d="M272 731Q390 731 455 668T523 484H409Q399 636 275 636Q224 636 193 603T163 519Q163 488 175 456T209 384H356V319H233Q249 287 249 252Q249 207 226 169T148 88L150 86Q210 113 242 113Q282 113 341 89Q369 78 397 78Q453 78 494 116L545 39Q506 7 470 -5T386 -17Q338 -17 269 3Q222 18 181 18Q153 18 125 8T80 -16L27 65Q75 99 105 144T135 228Q135 275 114 319H22V384H85Q62 411 50 450T38 525Q38 611 107 671T272 731Z" horiz-adv-x="536" unicode="£"/>
			<glyph d="M471 613L532 552L476 494Q523 445 523 351Q523 260 475 205L530 146L475 91L418 149Q366 99 275 99Q185 99 128 148L72 90L16 146L73 207Q23 265 23 349Q23 443 73 493L16 554L73 611L130 555Q157 578 197 589T276 601Q357 601 413 556ZM275 499Q217 499 174 455T131 349Q131 288 172 244T275 201Q333 201 374 244T415 351Q415 414 373 456T275 499Z" horiz-adv-x="549" unicode="¤"/>
			<glyph d="M-10 714H117L273 394L432 714H556L368 363H467V298H330V230H467V165H330V0H216V165H79V230H216V298H79V363H177Z" horiz-adv-x="539" unicode="¥"/>
			<glyph d="M60 661H162V411H60ZM60 161H162V-89H60Z" horiz-adv-x="223" unicode="¦"/>
			<glyph d="M277 731Q366 731 421 677T477 542H370Q368 587 342 614T276 641Q243 641 218 619T194 566Q194 532 224 505T328 443Q455 382 491 336T528 238Q528 191 497 150T422 94Q451 68 464 38T477 -34Q477 -109 421 -157T279 -205Q182 -205 124 -150T63 0H171Q180 -115 276 -115Q363 -115 363 -34Q363 -7 346 16T296 61T171 130Q90 172 52 215T15 312Q15 416 123 461Q80 508 80 562Q80 633 138 682T277 731ZM183 405Q156 397 139 375T123 325Q123 277 178 247L360 145Q420 173 420 227Q420 249 412 261T385 287T183 405Z" horiz-adv-x="544" unicode="§"/>
			<glyph d="M-44 710H70V602H-44ZM128 710H242V602H128Z" horiz-adv-x="198" unicode="¨"/>
			<glyph d="M381 731Q538 731 642 623T747 357Q747 255 699 168T567 32T381 -17Q221 -17 117 89T13 357Q13 517 119 624T381 731ZM380 666Q254 666 173 578T93 357Q93 222 173 135T381 48Q504 48 585 135T667 357Q667 490 586 578T380 666ZM391 572Q465 572 512 531T569 421H501Q492 461 462 484T391 507Q332 507 296 464T261 357Q261 290 298 243T393 196Q435 196 465 219T501 285H570Q559 217 510 174T393 131Q301 131 241 194T181 357Q181 452 239 512T391 572Z" horiz-adv-x="761" unicode="©"/>
			<glyph d="M171 714Q234 714 273 689T313 622V470Q313 455 317 451T330 448Q344 448 346 449V381Q319 373 298 373Q271 373 257 384T237 422Q226 403 188 388T120 373Q66 373 32 398T-2 466Q-2 513 31 534T143 567Q193 574 209 582T226 604Q226 629 212 639T167 649Q129 649 113 638T96 607H11Q16 659 57 686T171 714ZM226 535Q207 526 172 522Q121 515 103 503T85 471Q85 454 97 446T141 438Q225 438 226 491Z" horiz-adv-x="342" unicode="ª"/>
			<glyph d="M196 451V348L101 272L196 196V93L41 216V328ZM394 451V348L299 272L394 196V93L239 216V328Z" horiz-adv-x="440" unicode="«"/>
			<glyph d="M41 405H545V108H443V303H41Z" horiz-adv-x="586" unicode="¬"/>
			<glyph d="M48 326H339V218H48Z" horiz-adv-x="388" unicode="­"/>
			<glyph d="M381 731Q538 731 642 623T747 357Q747 255 699 168T567 32T381 -17Q221 -17 117 89T13 357Q13 517 119 624T381 731ZM380 666Q254 666 173 578T93 357Q93 222 173 135T381 48Q504 48 585 135T667 357Q667 490 586 578T380 666ZM239 557H400Q474 557 510 528T547 438Q547 337 439 325L555 143H478L371 320H307V143H239ZM307 499V378H387Q442 378 460 394T479 443Q479 499 394 499Z" horiz-adv-x="761" unicode="®"/>
			<glyph d="M-69 689H219V624H-69Z" horiz-adv-x="150" unicode="¯"/>
			<glyph d="M196 714Q262 713 303 669T346 564Q346 502 302 458T196 414Q134 414 90 458T46 564Q46 626 89 669T196 714ZM196 658Q159 658 131 631T102 564Q102 524 130 497T196 470Q235 470 262 497T290 564Q289 605 262 631T196 658Z" horiz-adv-x="392" unicode="°"/>
			<glyph d="M242 506H344V381H545V279H344V154H242V279H41V381H242ZM41 102H545V0H41Z" horiz-adv-x="586" unicode="±"/>
			<glyph d="M184 714Q255 714 297 680T340 584Q340 539 310 502T203 421T117 343H330V273H15Q17 338 46 380T164 475T253 583Q253 614 231 629T180 644Q147 644 128 620T107 551H20Q20 627 64 670T184 714Z" horiz-adv-x="355" unicode="²"/>
			<glyph d="M173 714Q241 714 281 683T321 598Q321 566 305 542T257 508V506Q295 499 317 471T339 401Q339 339 293 301T174 264Q92 264 52 304T10 419H90V414Q90 380 112 357T174 334Q209 334 234 353T259 405Q259 441 232 458T155 475H140V533H151Q194 533 217 550T241 594Q241 617 220 630T172 644Q140 644 119 624T99 573V568H19Q22 637 63 675T173 714Z" horiz-adv-x="349" unicode="³"/>
			<glyph d="M130 732H265L123 589H40Z" horiz-adv-x="216" unicode="´"/>
			<glyph d="M49 517H163V196Q163 76 262 76Q389 76 389 213V517H503V0H391V72H389Q337 -14 247 -14Q194 -14 163 12V-191H49Z" unicode="µ"/>
			<glyph d="M245 714H509V-160H429V649H312V-160H232V344Q135 344 76 395T17 526Q17 619 76 666T245 714Z" horiz-adv-x="586" unicode="¶"/>
			<glyph d="M132 376Q163 376 185 353T207 302Q207 271 184 248T132 226Q102 226 80 248T57 302Q57 330 78 352T132 376Z" horiz-adv-x="263" unicode="·"/>
			<glyph d="M102 0H150L104 -59L105 -60Q122 -56 137 -56Q173 -56 197 -76T223 -131Q223 -174 190 -198T101 -223Q39 -223 -1 -200L17 -160Q31 -166 47 -171T85 -176Q142 -176 143 -135Q143 -118 129 -107T97 -97Q74 -97 58 -107L36 -88Z" horiz-adv-x="216" unicode="¸"/>
			<glyph d="M193 705H263V273H176V577H55V635Q107 635 145 651T193 705Z" horiz-adv-x="369" unicode="¹"/>
			<glyph d="M180 714Q267 714 312 668T358 543Q358 464 312 418T180 373Q95 373 48 417T2 543Q2 625 49 669T180 714ZM179 649Q139 649 114 618T89 543Q89 501 113 469T180 438Q221 438 246 468T271 544Q271 587 246 618T179 649Z" horiz-adv-x="359" unicode="º"/>
			<glyph d="M45 451L200 328V216L45 93V196L140 272L45 348ZM243 451L398 328V216L243 93V196L338 272L243 348Z" horiz-adv-x="440" unicode="»"/>
			<glyph d="M548 724H626L208 -24H129ZM163 705H233V273H146V577H25V635Q77 635 115 651T163 705ZM610 428H707V172H754V97H707V0H620V97H425V178ZM618 330L501 172H620V330Z" horiz-adv-x="807" unicode="¼"/>
			<glyph d="M545 724H623L205 -24H126ZM163 705H233V273H146V577H25V635Q77 635 115 651T163 705ZM631 446Q704 446 745 409T787 311Q787 271 764 239T700 180T616 127T564 70H777V0H462Q462 63 493 107T582 184T670 243T700 309Q700 341 679 358T627 376Q593 376 575 352T554 278H467Q467 356 509 401T631 446Z" horiz-adv-x="826" unicode="½"/>
			<glyph d="M620 724H698L280 -24H201ZM184 714Q252 714 292 683T332 598Q332 566 316 542T268 508V506Q306 499 328 471T350 401Q350 339 304 301T185 264Q103 264 63 304T21 419H101V414Q101 380 123 357T185 334Q220 334 245 353T270 405Q270 439 246 456T169 474H151V532H160Q201 532 226 548T252 594Q252 617 231 630T183 644Q151 644 130 624T110 573V568H30Q33 637 74 675T184 714ZM662 428H761V172H808V97H761V0H674V97H479V178ZM672 330L555 172H674V330Z" horiz-adv-x="846" unicode="¾"/>
			<glyph d="M194 531H328V406H194ZM209 332H317Q317 248 298 204T233 124Q188 89 173 65T158 1Q158 -44 187 -74T256 -105Q313 -105 345 -69T377 39H491Q491 -67 425 -133T251 -200Q154 -200 93 -144T33 -3Q33 55 53 90T121 163Q175 205 192 240T209 332ZZ" horiz-adv-x="524" unicode="¿"/>
			<glyph d="M266 714H399L674 0H540L473 189H188L121 0H-8ZM330 591L222 284H440L333 591ZM170 926H304L395 783H312Z" horiz-adv-x="666" unicode="À"/>
			<glyph d="M266 714H399L674 0H540L473 189H188L121 0H-8ZM330 591L222 284H440L333 591ZM361 926H496L354 783H271Z" horiz-adv-x="666" unicode="Á"/>
			<glyph d="M266 714H399L674 0H540L473 189H188L121 0H-8ZM330 591L222 284H440L333 591ZM276 926H387L495 783H402L331 873L261 783H169Z" horiz-adv-x="666" unicode="Â"/>
			<glyph d="M266 714H399L674 0H540L473 189H188L121 0H-8ZM330 591L222 284H440L333 591ZM454 914H510Q503 857 473 828T400 799Q369 799 327 818Q285 836 257 836Q222 836 214 795H157Q166 843 193 875T262 908Q300 908 340 889T404 870Q423 870 435 880T454 914Z" horiz-adv-x="666" unicode="Ã"/>
			<glyph d="M266 714H399L674 0H540L473 189H188L121 0H-8ZM330 591L222 284H440L333 591ZM189 904H303V796H189ZM361 904H475V796H361Z" horiz-adv-x="666" unicode="Ä"/>
			<glyph d="M266 714H399L674 0H540L473 189H188L121 0H-8ZM330 591L222 284H440L333 591ZM331 957Q376 957 405 928T435 854Q435 810 405 781T331 751Q285 752 256 781T227 854Q227 897 256 926T331 957ZM331 915Q305 915 288 897T271 854Q271 829 288 811T331 793Q357 793 374 811T391 854Q391 880 375 897T331 915Z" horiz-adv-x="666" unicode="Å"/>
			<glyph d="M347 714H923V606H575V419H901V317H575V108H929V0H456V183H217L131 0H-8ZM420 606L263 278H456V606Z" horiz-adv-x="958" unicode="Æ"/>
			<glyph d="M371 731Q498 731 580 664T674 487H549Q512 629 371 629Q270 629 212 554T154 357Q154 232 214 158T371 85Q450 85 496 135T553 272H675Q665 142 584 64T377 -17L345 -59L346 -60Q361 -56 379 -56Q414 -56 439 -77T464 -131Q464 -177 429 -200T343 -223Q282 -223 240 -200L258 -160Q294 -176 326 -176Q384 -176 384 -135Q384 -119 371 -108T338 -97Q315 -97 299 -107L277 -88L332 -14Q195 1 112 103T29 357Q29 461 71 547T193 682T371 731Z" horiz-adv-x="698" unicode="Ç"/>
			<glyph d="M62 714H576V606H187V419H547V317H187V108H583V0H62ZM175 926H309L400 783H317Z" horiz-adv-x="619" unicode="È"/>
			<glyph d="M62 714H576V606H187V419H547V317H187V108H583V0H62ZM353 926H488L346 783H263Z" horiz-adv-x="619" unicode="É"/>
			<glyph d="M62 714H576V606H187V419H547V317H187V108H583V0H62ZM262 926H373L481 783H388L317 873L247 783H155Z" horiz-adv-x="619" unicode="Ê"/>
			<glyph d="M62 714H576V606H187V419H547V317H187V108H583V0H62ZM178 904H292V796H178ZM350 904H464V796H350Z" horiz-adv-x="619" unicode="Ë"/>
			<glyph d="M63 714H188V0H63ZM-39 926H95L186 783H103Z" horiz-adv-x="252" unicode="Ì"/>
			<glyph d="M63 714H188V0H63ZM154 926H289L147 783H64Z" horiz-adv-x="252" unicode="Í"/>
			<glyph d="M63 714H188V0H63ZM68 926H179L287 783H194L123 873L53 783H-39Z" horiz-adv-x="252" unicode="Î"/>
			<glyph d="M63 714H188V0H63ZM-25 904H89V796H-25ZM147 904H261V796H147Z" horiz-adv-x="233" unicode="Ï"/>
			<glyph d="M61 714H362Q505 714 588 617T672 357Q672 190 589 95T362 0H61V317H-6V419H61ZM186 612V419H381V317H186V102H315Q436 102 491 164T547 357Q547 492 490 552T314 612Z" horiz-adv-x="704" unicode="Ð"/>
			<glyph d="M61 714H193L519 188H521V714H640V0H508L183 525H180V0H61ZM472 914H528Q521 857 491 828T418 799Q387 799 345 818Q303 836 275 836Q240 836 232 795H175Q184 843 211 875T280 908Q318 908 358 889T422 870Q441 870 453 880T472 914Z" horiz-adv-x="701" unicode="Ñ"/>
			<glyph d="M370 731Q521 731 616 625T712 357Q712 194 616 88T370 -17Q217 -17 122 89T28 357Q28 519 123 625T370 731ZM369 629Q269 629 211 554T153 357Q153 236 211 160T370 85Q470 85 528 159T587 357Q587 480 528 554T369 629ZM179 926H313L404 783H321Z" horiz-adv-x="740" unicode="Ò"/>
			<glyph d="M370 731Q521 731 616 625T712 357Q712 194 616 88T370 -17Q217 -17 122 89T28 357Q28 519 123 625T370 731ZM369 629Q269 629 211 554T153 357Q153 236 211 160T370 85Q470 85 528 159T587 357Q587 480 528 554T369 629ZM413 926H548L406 783H323Z" horiz-adv-x="740" unicode="Ó"/>
			<glyph d="M370 731Q521 731 616 625T712 357Q712 194 616 88T370 -17Q217 -17 122 89T28 357Q28 519 123 625T370 731ZM369 629Q269 629 211 554T153 357Q153 236 211 160T370 85Q470 85 528 159T587 357Q587 480 528 554T369 629ZM313 926H424L532 783H439L368 873L298 783H206Z" horiz-adv-x="740" unicode="Ô"/>
			<glyph d="M370 731Q521 731 616 625T712 357Q712 194 616 88T370 -17Q217 -17 122 89T28 357Q28 519 123 625T370 731ZM369 629Q269 629 211 554T153 357Q153 236 211 160T370 85Q470 85 528 159T587 357Q587 480 528 554T369 629ZM494 914H550Q543 857 513 828T440 799Q409 799 367 818Q325 836 297 836Q262 836 254 795H197Q206 843 233 875T302 908Q340 908 380 889T444 870Q463 870 475 880T494 914Z" horiz-adv-x="740" unicode="Õ"/>
			<glyph d="M370 731Q521 731 616 625T712 357Q712 194 616 88T370 -17Q217 -17 122 89T28 357Q28 519 123 625T370 731ZM369 629Q269 629 211 554T153 357Q153 236 211 160T370 85Q470 85 528 159T587 357Q587 480 528 554T369 629ZM228 904H342V796H228ZM400 904H514V796H400Z" horiz-adv-x="740" unicode="Ö"/>
			<glyph d="M141 498L305 324L471 498L551 427L376 253L550 79L470 8L306 182L140 8L60 79L235 253L61 427Z" horiz-adv-x="610" unicode="×"/>
			<glyph d="M665 734L708 698L629 609Q710 504 710 357Q710 193 613 88T368 -17Q237 -17 146 65L70 -20L28 16L107 106Q26 210 26 357Q26 522 122 626T368 731Q501 731 590 650ZM367 629Q270 629 210 555T151 357Q151 264 187 196L516 566Q463 629 367 629ZM548 518L220 148Q277 85 368 85Q470 85 527 160T585 357Q585 461 548 518Z" horiz-adv-x="738" unicode="Ø"/>
			<glyph d="M57 714H182V292Q182 181 222 136T350 91Q438 91 478 135T518 289V714H643V252Q643 124 564 53T350 -17Q215 -17 136 54T57 252ZM179 926H313L404 783H321Z" horiz-adv-x="701" unicode="Ù"/>
			<glyph d="M57 714H182V292Q182 181 222 136T350 91Q438 91 478 135T518 289V714H643V252Q643 124 564 53T350 -17Q215 -17 136 54T57 252ZM387 926H522L380 783H297Z" horiz-adv-x="701" unicode="Ú"/>
			<glyph d="M57 714H182V292Q182 181 222 136T350 91Q438 91 478 135T518 289V714H643V252Q643 124 564 53T350 -17Q215 -17 136 54T57 252ZM293 926H404L512 783H419L348 873L278 783H186Z" horiz-adv-x="701" unicode="Û"/>
			<glyph d="M57 714H182V292Q182 181 222 136T350 91Q438 91 478 135T518 289V714H643V252Q643 124 564 53T350 -17Q215 -17 136 54T57 252ZM206 904H320V796H206ZM378 904H492V796H378Z" horiz-adv-x="701" unicode="Ü"/>
			<glyph d="M-18 714H127L316 394L502 714H642L375 280V0H250V280ZM361 926H496L354 783H271Z" horiz-adv-x="625" unicode="Ý"/>
			<glyph d="M62 714H187V606H382Q494 606 557 548T620 385Q620 281 558 223T382 166H187V0H62ZM187 504V268H373Q428 268 461 301T495 386Q495 504 376 504Z" horiz-adv-x="640" unicode="Þ"/>
			<glyph d="M269 731Q361 731 421 680T482 551Q482 498 457 457T380 400V398Q438 392 476 342T514 227Q514 121 451 53T284 -14L229 -11V79Q242 76 262 76Q337 76 368 114T400 231Q400 292 356 323T235 355H230V430Q297 430 332 458T368 540Q368 641 267 641Q217 641 190 607T164 515V0H50V527Q50 617 109 674T269 731Z" horiz-adv-x="560" unicode="ß"/>
			<glyph d="M279 531Q375 530 430 490T486 384V112Q486 92 492 84T517 76Q533 76 541 78V-1Q493 -14 469 -14Q393 -14 381 49Q352 20 302 3T202 -14Q121 -14 73 28T25 137Q25 208 66 246T220 298L267 304Q320 310 340 317T370 337T379 371Q379 440 272 441Q167 440 158 359H44Q50 444 110 487T279 531ZM372 259Q345 241 295 236L246 230Q139 218 139 147Q139 114 166 95T237 76Q296 76 334 103T372 171ZM122 732H256L347 589H264Z" horiz-adv-x="552" unicode="à"/>
			<glyph d="M279 531Q375 530 430 490T486 384V112Q486 92 492 84T517 76Q533 76 541 78V-1Q493 -14 469 -14Q393 -14 381 49Q352 20 302 3T202 -14Q121 -14 73 28T25 137Q25 208 66 246T220 298L267 304Q320 310 340 317T370 337T379 371Q379 440 272 441Q167 440 158 359H44Q50 444 110 487T279 531ZM372 259Q345 241 295 236L246 230Q139 218 139 147Q139 114 166 95T237 76Q296 76 334 103T372 171ZM307 732H442L300 589H217Z" horiz-adv-x="552" unicode="á"/>
			<glyph d="M279 531Q375 530 430 490T486 384V112Q486 92 492 84T517 76Q533 76 541 78V-1Q493 -14 469 -14Q393 -14 381 49Q352 20 302 3T202 -14Q121 -14 73 28T25 137Q25 208 66 246T220 298L267 304Q320 310 340 317T370 337T379 371Q379 440 272 441Q167 440 158 359H44Q50 444 110 487T279 531ZM372 259Q345 241 295 236L246 230Q139 218 139 147Q139 114 166 95T237 76Q296 76 334 103T372 171ZM222 732H333L441 589H348L277 679L207 589H115Z" horiz-adv-x="552" unicode="â"/>
			<glyph d="M279 531Q375 530 430 490T486 384V112Q486 92 492 84T517 76Q533 76 541 78V-1Q493 -14 469 -14Q393 -14 381 49Q352 20 302 3T202 -14Q121 -14 73 28T25 137Q25 208 66 246T220 298L267 304Q320 310 340 317T370 337T379 371Q379 440 272 441Q167 440 158 359H44Q50 444 110 487T279 531ZM372 259Q345 241 295 236L246 230Q139 218 139 147Q139 114 166 95T237 76Q296 76 334 103T372 171ZM397 720H453Q446 666 416 635T343 605Q323 605 302 611T267 624T237 636T200 642Q165 642 157 601H100Q109 649 136 681T205 714Q229 714 247 708T278 697T312 683T347 676Q367 676 378 686T397 720Z" horiz-adv-x="552" unicode="ã"/>
			<glyph d="M279 531Q375 530 430 490T486 384V112Q486 92 492 84T517 76Q533 76 541 78V-1Q493 -14 469 -14Q393 -14 381 49Q352 20 302 3T202 -14Q121 -14 73 28T25 137Q25 208 66 246T220 298L267 304Q320 310 340 317T370 337T379 371Q379 440 272 441Q167 440 158 359H44Q50 444 110 487T279 531ZM372 259Q345 241 295 236L246 230Q139 218 139 147Q139 114 166 95T237 76Q296 76 334 103T372 171ZM132 710H246V602H132ZM304 710H418V602H304Z" horiz-adv-x="552" unicode="ä"/>
			<glyph d="M279 531Q375 530 430 490T486 384V112Q486 92 492 84T517 76Q533 76 541 78V-1Q493 -14 469 -14Q393 -14 381 49Q352 20 302 3T202 -14Q121 -14 73 28T25 137Q25 208 66 246T220 298L267 304Q320 310 340 317T370 337T379 371Q379 440 272 441Q167 440 158 359H44Q50 444 110 487T279 531ZM372 259Q345 241 295 236L246 230Q139 218 139 147Q139 114 166 95T237 76Q296 76 334 103T372 171ZM275 777Q321 777 350 747T379 674Q379 632 350 601T275 571Q230 571 200 600T171 674Q171 717 200 747T275 777ZM275 735Q249 735 232 717T215 674Q215 648 233 630T275 613Q301 613 318 629T335 674Q335 700 319 717T275 735Z" horiz-adv-x="552" unicode="å"/>
			<glyph d="M279 531Q349 531 390 513T454 461Q508 530 618 531Q695 531 748 499T830 407T859 264Q859 231 858 229H483Q483 160 519 118T618 76Q709 76 740 163H854Q841 111 806 68T722 6T620 -14Q482 -13 430 81Q367 -12 216 -14Q131 -14 80 26T28 138Q28 180 43 210T91 261T185 292L302 309Q343 316 359 328T376 372Q376 408 351 424T275 441Q170 440 161 359H47Q53 444 113 487T279 531ZM613 441Q558 441 523 404T483 304H744Q744 350 727 380T682 425T613 441ZM375 257Q363 241 289 234Q229 230 200 220T157 191T142 143Q142 110 170 93T246 76Q300 76 337 105T375 178Z" horiz-adv-x="886" unicode="æ"/>
			<glyph d="M284 531Q384 531 446 481T517 344H403Q396 391 365 416T285 441Q219 441 181 393T143 253Q143 175 179 125T280 76Q329 76 361 105T403 194H517Q502 100 448 47T306 -13H305L270 -59L271 -60Q286 -56 304 -56Q339 -56 364 -77T389 -131Q389 -176 354 -199T267 -223Q205 -223 165 -200L183 -160Q223 -176 251 -176Q309 -176 309 -135Q309 -118 295 -107T263 -97Q240 -97 224 -107L202 -88L258 -13Q154 -8 91 64T29 253Q29 380 96 455T284 531Z" horiz-adv-x="539" unicode="ç"/>
			<glyph d="M276 531Q350 530 404 495T489 402T522 268Q522 253 520 229H140Q140 161 178 118T279 76Q330 76 360 98T405 162H513Q496 81 432 34T279 -14Q164 -14 95 59T26 257Q26 339 61 403T151 498T276 531ZM275 441Q218 441 181 403T140 304H406Q401 364 365 402T275 441ZM108 732H242L333 589H250Z" unicode="è"/>
			<glyph d="M276 531Q350 530 404 495T489 402T522 268Q522 253 520 229H140Q140 161 178 118T279 76Q330 76 360 98T405 162H513Q496 81 432 34T279 -14Q164 -14 95 59T26 257Q26 339 61 403T151 498T276 531ZM275 441Q218 441 181 403T140 304H406Q401 364 365 402T275 441ZM321 732H456L314 589H231Z" unicode="é"/>
			<glyph d="M276 531Q350 530 404 495T489 402T522 268Q522 253 520 229H140Q140 161 178 118T279 76Q330 76 360 98T405 162H513Q496 81 432 34T279 -14Q164 -14 95 59T26 257Q26 339 61 403T151 498T276 531ZM275 441Q218 441 181 403T140 304H406Q401 364 365 402T275 441ZM221 732H332L440 589H347L276 679L206 589H114Z" unicode="ê"/>
			<glyph d="M276 531Q350 530 404 495T489 402T522 268Q522 253 520 229H140Q140 161 178 118T279 76Q330 76 360 98T405 162H513Q496 81 432 34T279 -14Q164 -14 95 59T26 257Q26 339 61 403T151 498T276 531ZM275 441Q218 441 181 403T140 304H406Q401 364 365 402T275 441ZM132 710H246V602H132ZM304 710H418V602H304Z" unicode="ë"/>
			<glyph d="M52 517H166V0H52ZM-61 732H73L164 589H81Z" horiz-adv-x="218" unicode="ì"/>
			<glyph d="M52 517H166V0H52ZM143 732H278L136 589H53Z" horiz-adv-x="218" unicode="í"/>
			<glyph d="M52 517H166V0H52ZM53 732H164L272 589H179L108 679L38 589H-54Z" horiz-adv-x="213" unicode="î"/>
			<glyph d="M52 517H166V0H52ZM-43 710H71V602H-43ZM129 710H243V602H129Z" horiz-adv-x="198" unicode="ï"/>
			<glyph d="M225 727Q283 708 331 677L436 727L475 682L382 637Q457 574 496 488T535 306Q535 153 467 69T270 -14Q160 -14 94 59T28 252Q28 361 94 433T261 506Q306 506 339 491T402 445H404Q371 524 290 593L180 541L140 586L234 630H236Q204 650 156 666ZM284 416Q215 416 178 371T142 245Q142 168 178 122T277 76Q340 76 381 125T422 245Q422 320 385 368T284 416ZZ" horiz-adv-x="567" unicode="ð"/>
			<glyph d="M321 531Q411 531 457 484T503 359V0H389V323Q389 441 288 441Q232 441 197 402T163 308V0H49V517H157V441L159 439Q216 531 321 531ZM395 720H451Q444 666 414 635T341 605Q321 605 300 611T265 624T235 636T198 642Q163 642 155 601H98Q107 649 134 681T203 714Q227 714 245 708T276 697T310 683T345 676Q365 676 376 686T395 720Z" unicode="ñ"/>
			<glyph d="M289 531Q405 531 477 456T550 259Q550 134 478 60T289 -14Q170 -14 99 60T28 259Q28 381 99 456T289 531ZM288 441Q222 441 182 390T142 259Q142 180 182 128T289 76Q356 76 396 128T436 259Q436 341 396 391T288 441ZM116 732H250L341 589H258Z" horiz-adv-x="578" unicode="ò"/>
			<glyph d="M289 531Q405 531 477 456T550 259Q550 134 478 60T289 -14Q170 -14 99 60T28 259Q28 381 99 456T289 531ZM288 441Q222 441 182 390T142 259Q142 180 182 128T289 76Q356 76 396 128T436 259Q436 341 396 391T288 441ZM322 732H457L315 589H232Z" horiz-adv-x="578" unicode="ó"/>
			<glyph d="M289 531Q405 531 477 456T550 259Q550 134 478 60T289 -14Q170 -14 99 60T28 259Q28 381 99 456T289 531ZM288 441Q222 441 182 390T142 259Q142 180 182 128T289 76Q356 76 396 128T436 259Q436 341 396 391T288 441ZM231 732H342L450 589H357L286 679L216 589H124Z" horiz-adv-x="578" unicode="ô"/>
			<glyph d="M289 531Q405 531 477 456T550 259Q550 134 478 60T289 -14Q170 -14 99 60T28 259Q28 381 99 456T289 531ZM288 441Q222 441 182 390T142 259Q142 180 182 128T289 76Q356 76 396 128T436 259Q436 341 396 391T288 441ZM412 720H468Q461 666 431 635T358 605Q338 605 317 611T282 624T252 636T215 642Q180 642 172 601H115Q124 649 151 681T220 714Q244 714 262 708T293 697T327 683T362 676Q382 676 393 686T412 720Z" horiz-adv-x="578" unicode="õ"/>
			<glyph d="M289 531Q405 531 477 456T550 259Q550 134 478 60T289 -14Q170 -14 99 60T28 259Q28 381 99 456T289 531ZM288 441Q222 441 182 390T142 259Q142 180 182 128T289 76Q356 76 396 128T436 259Q436 341 396 391T288 441ZM147 710H261V602H147ZM319 710H433V602H319Z" horiz-adv-x="578" unicode="ö"/>
			<glyph d="M293 531Q323 531 344 508T365 459Q365 433 343 410T294 387Q265 387 243 409T221 459Q221 488 242 509T293 531ZM41 304H545V202H41ZM293 119Q322 119 343 97T365 47Q365 22 343 -1T294 -25Q268 -25 244 -4T221 47Q221 76 241 97T293 119Z" horiz-adv-x="586" unicode="÷"/>
			<glyph d="M525 545L557 517L492 446Q553 372 553 259Q553 134 481 60T292 -14Q188 -14 123 42L59 -28L27 0L92 71H93Q31 146 31 259Q31 383 102 457T292 531Q396 531 462 476ZM291 441Q226 441 185 389T145 259Q145 199 168 155L391 399Q355 441 291 441ZM416 362L193 118Q230 76 292 76Q359 76 399 127T439 259Q439 316 416 362Z" horiz-adv-x="585" unicode="ø"/>
			<glyph d="M49 517H163V196Q163 76 262 76Q389 76 389 213V517H503V0H391V72H389Q366 32 326 9T241 -14Q141 -14 95 35T49 184ZM98 732H232L323 589H240Z" unicode="ù"/>
			<glyph d="M49 517H163V196Q163 76 262 76Q389 76 389 213V517H503V0H391V72H389Q366 32 326 9T241 -14Q141 -14 95 35T49 184ZM322 732H457L315 589H232Z" unicode="ú"/>
			<glyph d="M49 517H163V196Q163 76 262 76Q389 76 389 213V517H503V0H391V72H389Q366 32 326 9T241 -14Q141 -14 95 35T49 184ZM222 732H333L441 589H348L277 679L207 589H115Z" unicode="û"/>
			<glyph d="M49 517H163V196Q163 76 262 76Q389 76 389 213V517H503V0H391V72H389Q366 32 326 9T241 -14Q141 -14 95 35T49 184ZM126 710H240V602H126ZM298 710H412V602H298Z" unicode="ü"/>
			<glyph d="M3 517H128L263 131H265L396 517H515L316 -23Q280 -125 241 -165T130 -205Q94 -205 52 -199V-103Q98 -110 106 -110Q160 -110 177 -63L199 2ZM311 732H446L304 589H221Z" horiz-adv-x="518" unicode="ý"/>
			<glyph d="M49 714H163V450H165Q190 488 232 509T319 531Q430 531 495 455T561 256Q561 136 500 61T338 -14Q284 -14 236 7T165 67H163V-191H49ZM303 441Q235 441 197 393T159 258Q159 175 199 125T304 76Q370 76 408 125T447 258Q447 337 406 389T303 441Z" horiz-adv-x="590" unicode="þ"/>
			<glyph d="M3 517H128L263 131H265L396 517H515L316 -23Q280 -125 241 -165T130 -205Q94 -205 52 -199V-103Q98 -110 106 -110Q160 -110 177 -63L199 2ZM122 710H236V602H122ZM294 710H408V602H294Z" horiz-adv-x="518" unicode="ÿ"/>
			<glyph d="M266 714H399L674 0H540L473 189H188L121 0H-8ZM330 591L222 284H440L333 591ZM188 883H476V818H188Z" horiz-adv-x="666" unicode="Ā"/>
			<glyph d="M279 531Q375 530 430 490T486 384V112Q486 92 492 84T517 76Q533 76 541 78V-1Q493 -14 469 -14Q393 -14 381 49Q352 20 302 3T202 -14Q121 -14 73 28T25 137Q25 208 66 246T220 298L267 304Q320 310 340 317T370 337T379 371Q379 440 272 441Q167 440 158 359H44Q50 444 110 487T279 531ZM372 259Q345 241 295 236L246 230Q139 218 139 147Q139 114 166 95T237 76Q296 76 334 103T372 171ZM130 689H418V624H130Z" horiz-adv-x="552" unicode="ā"/>
			<glyph d="M266 714H399L674 0H540L473 189H188L121 0H-8ZM330 591L222 284H440L333 591ZM171 925H229Q244 850 336 849Q418 849 437 925H494Q487 857 443 820T328 784Q257 784 217 821T171 925Z" horiz-adv-x="666" unicode="Ă"/>
			<glyph d="M279 531Q375 530 430 490T486 384V112Q486 92 492 84T517 76Q533 76 541 78V-1Q493 -14 469 -14Q393 -14 381 49Q352 20 302 3T202 -14Q121 -14 73 28T25 137Q25 208 66 246T220 298L267 304Q320 310 340 317T370 337T379 371Q379 440 272 441Q167 440 158 359H44Q50 444 110 487T279 531ZM372 259Q345 241 295 236L246 230Q139 218 139 147Q139 114 166 95T237 76Q296 76 334 103T372 171ZM114 731H172Q187 656 279 655Q317 655 344 673T380 731H437Q429 662 385 626T271 590Q202 590 161 626T114 731Z" horiz-adv-x="552" unicode="ă"/>
			<glyph d="M266 714H399L674 0H594Q535 -48 517 -71T500 -128Q500 -148 511 -160T540 -173Q570 -173 591 -139L632 -148Q610 -223 527 -223Q483 -223 454 -200T426 -137Q426 -68 540 0L473 189H188L121 0H-8ZM330 591L222 284H440L333 591Z" horiz-adv-x="666" unicode="Ą"/>
			<glyph d="M279 531Q376 530 430 490T486 384V112Q486 92 492 84T517 76Q534 76 541 78V-1Q508 -12 468 -14Q392 -74 392 -128Q392 -147 403 -160T431 -173Q448 -173 459 -165T483 -139L524 -148Q502 -222 419 -223Q375 -223 347 -200T318 -133Q318 -68 422 -6Q408 -1 396 14T381 49Q352 20 302 3T202 -14Q122 -14 73 28T25 137Q25 191 48 224T112 273T189 294T289 307Q341 313 360 326T379 371Q379 440 272 441Q167 440 158 359H44Q50 444 111 487T279 531ZM372 259Q345 241 295 236L245 230Q187 222 163 201T139 147Q139 115 164 96T237 76Q296 76 334 103T372 171Z" horiz-adv-x="552" unicode="ą"/>
			<glyph d="M372 731Q499 731 581 664T675 487H550Q513 629 372 629Q271 629 213 554T155 357Q155 232 215 158T372 85Q449 85 496 135T554 272H676Q666 143 585 63T372 -17Q223 -17 126 87T30 357Q30 521 125 626T372 731ZM416 926H551L409 783H326Z" horiz-adv-x="698" unicode="Ć"/>
			<glyph d="M285 531Q386 531 448 482T518 344H404Q397 391 366 416T286 441Q220 441 182 394T144 253Q144 175 180 125T281 76Q330 76 362 105T404 194H518Q501 91 440 38T281 -14Q167 -14 98 57T30 253Q30 380 97 455T285 531ZM325 732H460L318 589H235Z" horiz-adv-x="540" unicode="ć"/>
			<glyph d="M372 731Q499 731 581 664T675 487H550Q513 629 372 629Q271 629 213 554T155 357Q155 232 215 158T372 85Q449 85 496 135T554 272H676Q666 143 585 63T372 -17Q223 -17 126 87T30 357Q30 521 125 626T372 731ZM317 926H428L536 783H443L372 873L302 783H210Z" horiz-adv-x="698" unicode="Ĉ"/>
			<glyph d="M285 531Q386 531 448 482T518 344H404Q397 391 366 416T286 441Q220 441 182 394T144 253Q144 175 180 125T281 76Q330 76 362 105T404 194H518Q501 91 440 38T281 -14Q167 -14 98 57T30 253Q30 380 97 455T285 531ZM225 732H336L444 589H351L280 679L210 589H118Z" horiz-adv-x="540" unicode="ĉ"/>
			<glyph d="M372 731Q499 731 581 664T675 487H550Q513 629 372 629Q271 629 213 554T155 357Q155 232 215 158T372 85Q449 85 496 135T554 272H676Q666 143 585 63T372 -17Q223 -17 126 87T30 357Q30 521 125 626T372 731ZM311 904H425V796H311Z" horiz-adv-x="698" unicode="Ċ"/>
			<glyph d="M285 531Q386 531 448 482T518 344H404Q397 391 366 416T286 441Q220 441 182 394T144 253Q144 175 180 125T281 76Q330 76 362 105T404 194H518Q501 91 440 38T281 -14Q167 -14 98 57T30 253Q30 380 97 455T285 531ZM225 710H339V602H225Z" horiz-adv-x="540" unicode="ċ"/>
			<glyph d="M372 731Q499 731 581 664T675 487H550Q513 629 372 629Q271 629 213 554T155 357Q155 232 215 158T372 85Q449 85 496 135T554 272H676Q666 143 585 63T372 -17Q223 -17 126 87T30 357Q30 521 125 626T372 731ZM202 926H294L364 837L435 926H528L420 783H309Z" horiz-adv-x="698" unicode="Č"/>
			<glyph d="M285 531Q386 531 448 482T518 344H404Q397 391 366 416T286 441Q220 441 182 394T144 253Q144 175 180 125T281 76Q330 76 362 105T404 194H518Q501 91 440 38T281 -14Q167 -14 98 57T30 253Q30 380 97 455T285 531ZM116 732H208L278 643L349 732H442L334 589H223Z" horiz-adv-x="540" unicode="č"/>
			<glyph d="M62 714H363Q506 714 589 617T673 357Q673 190 589 95T361 0H62ZM187 612V102H315Q436 102 492 163T548 357Q548 492 490 552T316 612ZM150 926H242L312 837L383 926H476L368 783H257Z" horiz-adv-x="704" unicode="Ď"/>
			<glyph d="M431 714H545V0H437V70H435Q390 -14 275 -14Q163 -14 98 61T33 262Q33 384 94 457T257 531Q313 531 359 509T429 450H431ZM291 441Q225 441 186 390T147 253Q147 176 186 126T290 76Q357 76 396 128T435 259Q435 344 397 392T291 441ZM637 714H762L681 571H605Z" horiz-adv-x="684" unicode="ď"/>
			<glyph d="M61 714H362Q505 714 588 617T672 357Q672 190 589 95T362 0H61V317H-6V419H61ZM186 612V419H381V317H186V102H315Q436 102 491 164T547 357Q547 492 490 552T314 612Z" horiz-adv-x="704" unicode="Đ"/>
			<glyph d="M431 714H545V649H624V584H545V0H437V70H435Q390 -14 275 -14Q163 -14 98 61T33 262Q33 384 94 457T257 531Q313 531 359 509T429 450H431V584H278V649H431ZM291 441Q225 441 186 390T147 253Q147 176 186 126T290 76Q357 76 396 128T435 259Q435 344 397 392T291 441Z" horiz-adv-x="617" unicode="đ"/>
			<glyph d="M62 714H576V606H187V419H547V317H187V108H583V0H62ZM176 883H464V818H176Z" horiz-adv-x="619" unicode="Ē"/>
			<glyph d="M276 531Q350 530 404 495T489 402T522 268Q522 253 520 229H140Q140 161 178 118T279 76Q330 76 360 98T405 162H513Q496 81 432 34T279 -14Q164 -14 95 59T26 257Q26 339 61 403T151 498T276 531ZM275 441Q218 441 181 403T140 304H406Q401 364 365 402T275 441ZM131 689H419V624H131Z" unicode="ē"/>
			<glyph d="M62 714H576V606H187V419H547V317H187V108H583V0H62ZM160 925H218Q233 850 325 849Q407 849 426 925H483Q476 857 432 820T317 784Q246 784 206 821T160 925Z" horiz-adv-x="619" unicode="Ĕ"/>
			<glyph d="M276 531Q350 530 404 495T489 402T522 268Q522 253 520 229H140Q140 161 178 118T279 76Q330 76 360 98T405 162H513Q496 81 432 34T279 -14Q164 -14 95 59T26 257Q26 339 61 403T151 498T276 531ZM275 441Q218 441 181 403T140 304H406Q401 364 365 402T275 441ZM113 731H171Q186 656 278 655Q316 655 343 673T379 731H436Q428 662 384 626T270 590Q201 590 160 626T113 731Z" unicode="ĕ"/>
			<glyph d="M62 714H576V606H187V419H547V317H187V108H583V0H62ZM263 904H377V796H263Z" horiz-adv-x="619" unicode="Ė"/>
			<glyph d="M276 531Q350 530 404 495T489 402T522 268Q522 253 520 229H140Q140 161 178 118T279 76Q330 76 360 98T405 162H513Q496 81 432 34T279 -14Q164 -14 95 59T26 257Q26 339 61 403T151 498T276 531ZM275 441Q218 441 181 403T140 304H406Q401 364 365 402T275 441ZM221 710H335V602H221Z" unicode="ė"/>
			<glyph d="M61 714H575V606H186V419H546V317H186V108H582V0H544Q496 -38 473 -66T450 -129Q450 -148 461 -160T490 -173Q519 -173 541 -139L582 -148Q572 -185 544 -204T477 -223Q435 -223 405 -200T376 -137Q376 -64 490 0H61Z" horiz-adv-x="618" unicode="Ę"/>
			<glyph d="M275 531Q348 531 403 495T489 401T521 268Q521 253 519 229H139Q139 162 175 119T278 76Q375 76 404 162H512Q495 88 445 45T324 -10Q281 -46 269 -61T250 -93T243 -129Q243 -148 254 -160T283 -173Q314 -173 334 -139L375 -148Q353 -221 270 -223Q227 -223 198 -200T169 -137Q169 -107 188 -78T261 -13Q149 -6 87 66T25 257Q25 374 93 451T275 531ZM274 441Q215 440 179 401T139 304H405Q400 365 365 402T274 441Z" horiz-adv-x="550" unicode="ę"/>
			<glyph d="M62 714H576V606H187V419H547V317H187V108H583V0H62ZM154 926H246L316 837L387 926H480L372 783H261Z" horiz-adv-x="619" unicode="Ě"/>
			<glyph d="M276 531Q350 530 404 495T489 402T522 268Q522 253 520 229H140Q140 161 178 118T279 76Q330 76 360 98T405 162H513Q496 81 432 34T279 -14Q164 -14 95 59T26 257Q26 339 61 403T151 498T276 531ZM275 441Q218 441 181 403T140 304H406Q401 364 365 402T275 441ZM111 732H203L273 643L344 732H437L329 589H218Z" unicode="ě"/>
			<glyph d="M371 731Q497 731 579 666T677 487H555Q546 552 493 590T371 629Q272 629 213 554T154 357Q154 232 213 158T375 85Q469 85 519 137T571 281H381V376H685V0H605L586 84Q540 31 490 7T371 -17Q220 -17 124 88T29 357Q29 519 124 625T371 731ZM319 926H430L538 783H445L374 873L304 783H212Z" horiz-adv-x="740" unicode="Ĝ"/>
			<glyph d="M267 531Q380 531 420 446H422V517H536V22Q536 -87 473 -146T283 -205Q181 -205 119 -161T51 -44H165Q173 -82 201 -101T289 -120Q422 -120 422 9V91H420Q366 0 265 0Q155 0 94 71T33 271Q33 384 98 457T267 531ZM283 441Q218 441 182 391T147 261Q147 186 184 138T283 90Q348 90 385 139T422 270Q422 348 385 394T283 441ZM232 732H343L451 589H358L287 679L217 589H125Z" horiz-adv-x="585" unicode="ĝ"/>
			<glyph d="M371 731Q497 731 579 666T677 487H555Q546 552 493 590T371 629Q272 629 213 554T154 357Q154 232 213 158T375 85Q469 85 519 137T571 281H381V376H685V0H605L586 84Q540 31 490 7T371 -17Q220 -17 124 88T29 357Q29 519 124 625T371 731ZM217 925H275Q290 850 382 849Q464 849 483 925H540Q533 857 489 820T374 784Q303 784 263 821T217 925Z" horiz-adv-x="740" unicode="Ğ"/>
			<glyph d="M267 531Q380 531 420 446H422V517H536V22Q536 -87 473 -146T283 -205Q181 -205 119 -161T51 -44H165Q173 -82 201 -101T289 -120Q422 -120 422 9V91H420Q366 0 265 0Q155 0 94 71T33 271Q33 384 98 457T267 531ZM283 441Q218 441 182 391T147 261Q147 186 184 138T283 90Q348 90 385 139T422 270Q422 348 385 394T283 441ZM129 731H187Q202 656 294 655Q332 655 359 673T395 731H452Q444 662 400 626T286 590Q217 590 176 626T129 731Z" horiz-adv-x="585" unicode="ğ"/>
			<glyph d="M371 731Q497 731 579 666T677 487H555Q546 552 493 590T371 629Q272 629 213 554T154 357Q154 232 213 158T375 85Q469 85 519 137T571 281H381V376H685V0H605L586 84Q540 31 490 7T371 -17Q220 -17 124 88T29 357Q29 519 124 625T371 731ZM318 904H432V796H318Z" horiz-adv-x="740" unicode="Ġ"/>
			<glyph d="M267 531Q380 531 420 446H422V517H536V22Q536 -87 473 -146T283 -205Q181 -205 119 -161T51 -44H165Q173 -82 201 -101T289 -120Q422 -120 422 9V91H420Q366 0 265 0Q155 0 94 71T33 271Q33 384 98 457T267 531ZM283 441Q218 441 182 391T147 261Q147 186 184 138T283 90Q348 90 385 139T422 270Q422 348 385 394T283 441ZM231 710H345V602H231Z" horiz-adv-x="585" unicode="ġ"/>
			<glyph d="M371 731Q497 731 579 666T677 487H555Q546 552 493 590T371 629Q272 629 213 554T154 357Q154 232 213 158T375 85Q469 85 519 137T571 281H381V376H685V0H605L586 84Q540 31 490 7T371 -17Q220 -17 124 88T29 357Q29 519 124 625T371 731ZM318 -50H449V-140Q449 -219 333 -223V-185Q374 -181 378 -149H318Z" horiz-adv-x="740" unicode="Ģ"/>
			<glyph d="M267 531Q380 531 420 446H422V517H536V22Q536 -87 473 -146T283 -205Q181 -205 119 -161T51 -44H165Q173 -82 201 -101T289 -120Q422 -120 422 9V91H420Q366 0 265 0Q155 0 94 71T33 271Q33 384 98 457T267 531ZM283 441Q218 441 182 391T147 261Q147 186 184 138T283 90Q348 90 385 139T422 270Q422 348 385 394T283 441ZM346 788V750Q305 745 301 714H361V615H230V707Q230 783 346 788Z" horiz-adv-x="585" unicode="ģ"/>
			<glyph d="M62 714H187V430H512V714H637V0H512V322H187V0H62ZM293 926H404L512 783H419L348 873L278 783H186Z" horiz-adv-x="698" unicode="Ĥ"/>
			<glyph d="M49 714H163V449H165Q190 488 231 509T321 531Q411 531 457 484T503 359V0H389V320Q389 441 288 441Q232 441 197 401T163 308V0H49ZM209 926H320L428 783H335L264 873L194 783H102Z" unicode="ĥ"/>
			<glyph d="M61 714H186V542H511V714H636V0H511V297H186V0H61ZM186 477V405H511V477Z" horiz-adv-x="698" unicode="Ħ"/>
			<glyph d="M66 714H180V649H306V584H180V449H182Q205 487 246 509T337 531Q421 531 470 486T520 359V0H406V326Q406 441 305 441Q250 441 215 402T180 308V0H66V584H-10V649H66Z" horiz-adv-x="569" unicode="ħ"/>
			<glyph d="M63 714H188V0H63ZM252 914H308Q301 857 271 828T198 799Q167 799 125 818Q83 836 55 836Q20 836 12 795H-45Q-36 843 -9 875T60 908Q98 908 138 889T202 870Q221 870 233 880T252 914Z" horiz-adv-x="258" unicode="Ĩ"/>
			<glyph d="M52 517H166V0H52ZM234 720H290Q283 666 253 635T180 605Q160 605 139 611T104 624T74 636T37 642Q2 642 -6 601H-63Q-54 649 -27 681T42 714Q66 714 84 708T115 697T149 683T184 676Q204 676 215 686T234 720Z" horiz-adv-x="224" unicode="ĩ"/>
			<glyph d="M31 714H156V0H31ZM-52 883H236V818H-52Z" horiz-adv-x="185" unicode="Ī"/>
			<glyph d="M20 517H134V0H20ZM-70 689H218V624H-70Z" horiz-adv-x="149" unicode="ī"/>
			<glyph d="M48 714H173V0Q89 -71 89 -129Q89 -149 99 -161T124 -173Q151 -173 171 -139L208 -148Q188 -223 113 -223Q73 -223 47 -199T22 -138Q22 -67 125 0H48Z" horiz-adv-x="239" unicode="Į"/>
			<glyph d="M42 714H156V606H42ZM42 517H156V0Q113 -37 92 -66T72 -129Q72 -148 82 -160T107 -173Q133 -173 154 -139L191 -148Q170 -223 96 -223Q56 -223 30 -200T5 -138Q5 -67 108 0H42Z" horiz-adv-x="205" unicode="į"/>
			<glyph d="M63 714H188V0H63ZM71 904H185V796H71Z" horiz-adv-x="252" unicode="İ"/>
			<glyph d="M52 517H166V0H52Z" horiz-adv-x="218" unicode="ı"/>
			<glyph d="M63 714H188V0H63ZM607 714H732V224Q732 102 677 42T498 -17Q396 -17 340 40T284 215V250H409V205Q409 139 434 112T507 85Q561 85 584 115T607 218Z" horiz-adv-x="794" unicode="Ĳ"/>
			<glyph d="M52 714H166V606H52ZM52 517H166V0H52ZM293 714H407V606H293ZM293 517H407V-48Q407 -128 371 -166T258 -205Q219 -205 208 -201V-111Q228 -115 247 -115Q274 -115 283 -100T293 -45Z" horiz-adv-x="459" unicode="ĳ"/>
			<glyph d="M337 714H462V224Q462 102 407 42T228 -17Q126 -17 70 40T14 215V250H139V205Q139 139 164 112T237 85Q291 85 314 115T337 218ZM340 926H451L559 783H466L395 873L325 783H233Z" horiz-adv-x="517" unicode="Ĵ"/>
			<glyph d="M56 517H170V-48Q170 -128 133 -166T21 -205Q-17 -205 -29 -201V-111Q-8 -115 10 -115Q37 -115 46 -100T56 -45ZM51 732H162L270 589H177L106 679L36 589H-56Z" horiz-adv-x="226" unicode="ĵ"/>
			<glyph d="M62 714H187V389L505 714H659L374 429L679 0H523L289 341L187 240V0H62ZM261 -50H392V-140Q392 -219 276 -223V-185Q317 -181 321 -149H261Z" horiz-adv-x="672" unicode="Ķ"/>
			<glyph d="M58 714H172V308L378 517H518L320 327L537 0H398L240 251L172 185V0H58ZM216 -50H347V-140Q347 -219 231 -223V-185Q272 -181 276 -149H216Z" horiz-adv-x="528" unicode="ķ"/>
			<glyph d="M62 714H187V108H550V0H62ZM172 926H307L165 783H82Z" horiz-adv-x="573" unicode="Ĺ"/>
			<glyph d="M52 714H166V0H52ZM149 926H284L142 783H59Z" horiz-adv-x="218" unicode="ĺ"/>
			<glyph d="M62 714H187V108H550V0H62ZM241 -50H372V-140Q372 -219 256 -223V-185Q297 -181 301 -149H241Z" horiz-adv-x="573" unicode="Ļ"/>
			<glyph d="M52 714H166V0H52ZM46 -50H177V-140Q177 -219 61 -223V-185Q102 -181 106 -149H46Z" horiz-adv-x="224" unicode="ļ"/>
			<glyph d="M62 714H187V108H550V0H62ZM327 714H452L371 571H295Z" horiz-adv-x="573" unicode="Ľ"/>
			<glyph d="M52 714H166V0H52ZM267 714H392L311 571H235Z" horiz-adv-x="306" unicode="ľ"/>
			<glyph d="M62 714H187V108H550V0H62ZM312 444H426V336H312Z" horiz-adv-x="572" unicode="Ŀ"/>
			<glyph d="M52 714H166V0H52ZM232 444H346V336H232Z" horiz-adv-x="364" unicode="ŀ"/>
			<glyph d="M58 714H183V408L383 550V457L183 315V108H546V0H58V227L-18 173V263L57 316H58Z" horiz-adv-x="569" unicode="Ł"/>
			<glyph d="M54 714H168V479L236 533V461L168 407V0H54V319L-14 266V337L54 390Z" horiz-adv-x="221" unicode="ł"/>
			<glyph d="M61 714H193L519 188H521V714H640V0H508L183 525H180V0H61ZM389 926H524L382 783H299Z" horiz-adv-x="701" unicode="Ń"/>
			<glyph d="M321 531Q411 531 457 484T503 359V0H389V323Q389 441 288 441Q232 441 197 402T163 308V0H49V517H157V441L159 439Q216 531 321 531ZM320 732H455L313 589H230Z" unicode="ń"/>
			<glyph d="M61 714H193L519 188H521V714H640V0H508L183 525H180V0H61ZM275 -50H406V-140Q406 -219 290 -223V-185Q331 -181 335 -149H275Z" horiz-adv-x="701" unicode="Ņ"/>
			<glyph d="M321 531Q411 531 457 484T503 359V0H389V323Q389 441 288 441Q232 441 197 402T163 308V0H49V517H157V441L159 439Q216 531 321 531ZM208 -50H339V-140Q339 -219 223 -223V-185Q264 -181 268 -149H208Z" unicode="ņ"/>
			<glyph d="M61 714H193L519 188H521V714H640V0H508L183 525H180V0H61ZM183 926H275L345 837L416 926H509L401 783H290Z" horiz-adv-x="701" unicode="Ň"/>
			<glyph d="M321 531Q411 531 457 484T503 359V0H389V323Q389 441 288 441Q232 441 197 402T163 308V0H49V517H157V441L159 439Q216 531 321 531ZM112 732H204L274 643L345 732H438L330 589H219Z" unicode="ň"/>
			<glyph d="M344 531Q434 531 480 484T526 359V0H412V323Q412 441 311 441Q255 441 220 402T186 308V0H72V517H180V441L182 439Q239 531 344 531ZM-8 813H123V723Q123 644 7 640V678Q48 682 52 714H-8Z" horiz-adv-x="575" unicode="ŉ"/>
			<glyph d="M370 731Q521 731 616 625T712 357Q712 194 616 88T370 -17Q217 -17 122 89T28 357Q28 519 123 625T370 731ZM369 629Q269 629 211 554T153 357Q153 236 211 160T370 85Q470 85 528 159T587 357Q587 480 528 554T369 629ZM229 883H517V818H229Z" horiz-adv-x="740" unicode="Ō"/>
			<glyph d="M289 531Q405 531 477 456T550 259Q550 134 478 60T289 -14Q170 -14 99 60T28 259Q28 381 99 456T289 531ZM288 441Q222 441 182 390T142 259Q142 180 182 128T289 76Q356 76 396 128T436 259Q436 341 396 391T288 441ZM147 689H435V624H147Z" horiz-adv-x="578" unicode="ō"/>
			<glyph d="M370 731Q521 731 616 625T712 357Q712 194 616 88T370 -17Q217 -17 122 89T28 357Q28 519 123 625T370 731ZM369 629Q269 629 211 554T153 357Q153 236 211 160T370 85Q470 85 528 159T587 357Q587 480 528 554T369 629ZM211 925H269Q284 850 376 849Q458 849 477 925H534Q527 857 483 820T368 784Q297 784 257 821T211 925Z" horiz-adv-x="740" unicode="Ŏ"/>
			<glyph d="M289 531Q405 531 477 456T550 259Q550 134 478 60T289 -14Q170 -14 99 60T28 259Q28 381 99 456T289 531ZM288 441Q222 441 182 390T142 259Q142 180 182 128T289 76Q356 76 396 128T436 259Q436 341 396 391T288 441ZM129 731H187Q202 656 294 655Q332 655 359 673T395 731H452Q444 662 400 626T286 590Q217 590 176 626T129 731Z" horiz-adv-x="578" unicode="ŏ"/>
			<glyph d="M370 731Q521 731 616 625T712 357Q712 194 616 88T370 -17Q217 -17 122 89T28 357Q28 519 123 625T370 731ZM369 629Q269 629 211 554T153 357Q153 236 211 160T370 85Q470 85 528 159T587 357Q587 480 528 554T369 629ZM316 926H452L308 783H226ZM515 926H651L507 783H425Z" horiz-adv-x="740" unicode="Ő"/>
			<glyph d="M289 531Q405 531 477 456T550 259Q550 134 478 60T289 -14Q170 -14 99 60T28 259Q28 381 99 456T289 531ZM288 441Q222 441 182 390T142 259Q142 180 182 128T289 76Q356 76 396 128T436 259Q436 341 396 391T288 441ZM230 732H366L222 589H140ZM429 732H565L421 589H339Z" horiz-adv-x="578" unicode="ő"/>
			<glyph d="M365 731Q481 731 545 657V714H1033V606H659V419H1002V317H659V108H1040V0H545V64Q478 -17 357 -17Q214 -17 121 86T29 354Q29 458 71 545T189 682T365 731ZM368 629Q270 629 212 552T154 356Q154 234 213 159T369 85Q438 85 486 122T540 217V488Q540 550 492 589T368 629Z" horiz-adv-x="1070" unicode="Œ"/>
			<glyph d="M275 531Q408 531 456 444Q510 531 638 531Q755 531 815 453T876 229H498Q498 160 534 118T633 76Q678 76 712 98T756 164H870Q849 77 787 31T635 -14Q498 -14 450 81Q422 31 378 8T266 -14Q155 -14 91 62T28 260Q28 379 95 455T275 531ZM273 441Q215 441 178 392T142 262Q142 174 175 125T274 76Q340 76 373 125T406 262Q406 344 370 392T273 441ZM627 441Q575 441 539 404T498 304H762Q753 441 627 441Z" horiz-adv-x="901" unicode="œ"/>
			<glyph d="M62 714H408Q516 714 577 665T639 521Q639 382 521 341V339Q573 332 600 292T627 186Q627 45 666 0H532Q513 27 513 106Q513 218 480 256T375 294H187V0H62ZM187 612V389H395Q514 389 514 503Q514 559 485 585T394 612ZM362 926H497L355 783H272Z" horiz-adv-x="687" unicode="Ŕ"/>
			<glyph d="M309 531Q344 531 352 528V418Q324 423 303 423Q238 422 200 372T163 250V0H49V517H156V417H158Q171 466 217 498T309 531ZM161 732H296L154 589H71Z" horiz-adv-x="347" unicode="ŕ"/>
			<glyph d="M62 714H408Q516 714 577 665T639 521Q639 382 521 341V339Q573 332 600 292T627 186Q627 45 666 0H532Q513 27 513 106Q513 218 480 256T375 294H187V0H62ZM187 612V389H395Q514 389 514 503Q514 559 485 585T394 612ZM274 -50H405V-140Q405 -219 289 -223V-185Q330 -181 334 -149H274Z" horiz-adv-x="687" unicode="Ŗ"/>
			<glyph d="M309 531Q344 531 352 528V418Q324 423 303 423Q238 422 200 372T163 250V0H49V517H156V417H158Q171 466 217 498T309 531ZM53 -50H184V-140Q184 -219 68 -223V-185Q109 -181 113 -149H53Z" horiz-adv-x="353" unicode="ŗ"/>
			<glyph d="M62 714H408Q516 714 577 665T639 521Q639 382 521 341V339Q573 332 600 292T627 186Q627 45 666 0H532Q513 27 513 106Q513 218 480 256T375 294H187V0H62ZM187 612V389H395Q514 389 514 503Q514 559 485 585T394 612ZM158 926H250L320 837L391 926H484L376 783H265Z" horiz-adv-x="687" unicode="Ř"/>
			<glyph d="M309 531Q344 531 352 528V418Q324 423 303 423Q238 422 200 372T163 250V0H49V517H156V417H158Q171 466 217 498T309 531ZM34 732H126L196 643L267 732H360L252 589H141Z" horiz-adv-x="347" unicode="ř"/>
			<glyph d="M307 731Q429 731 505 668T581 503H456V504Q444 629 302 629Q245 629 208 605T171 536Q171 466 262 442L453 392Q518 375 559 324T601 207Q601 106 524 44T317 -17Q182 -17 101 50T19 238H144Q145 161 194 123T325 85Q397 85 436 115T476 193Q476 262 417 281Q377 294 213 337Q46 378 46 521Q46 617 119 674T307 731ZM352 926H487L345 783H262Z" horiz-adv-x="622" unicode="Ś"/>
			<glyph d="M256 531Q349 531 406 490T472 372H353Q340 441 248 441Q206 441 180 427T154 388Q154 361 182 344T285 313Q392 293 440 257T489 154Q489 77 426 31T258 -14Q153 -14 92 33T29 166H143Q153 76 260 76Q375 76 375 141Q375 175 335 194T208 229Q40 261 40 383Q40 452 99 491T256 531ZM272 732H407L265 589H182Z" horiz-adv-x="505" unicode="ś"/>
			<glyph d="M307 731Q429 731 505 668T581 503H456V504Q444 629 302 629Q245 629 208 605T171 536Q171 466 262 442L453 392Q518 375 559 324T601 207Q601 106 524 44T317 -17Q182 -17 101 50T19 238H144Q145 161 194 123T325 85Q397 85 436 115T476 193Q476 262 417 281Q377 294 213 337Q46 378 46 521Q46 617 119 674T307 731ZM262 926H373L481 783H388L317 873L247 783H155Z" horiz-adv-x="622" unicode="Ŝ"/>
			<glyph d="M256 531Q349 531 406 490T472 372H353Q340 441 248 441Q206 441 180 427T154 388Q154 361 182 344T285 313Q392 293 440 257T489 154Q489 77 426 31T258 -14Q153 -14 92 33T29 166H143Q153 76 260 76Q375 76 375 141Q375 175 335 194T208 229Q40 261 40 383Q40 452 99 491T256 531ZM196 732H307L415 589H322L251 679L181 589H89Z" horiz-adv-x="505" unicode="ŝ"/>
			<glyph d="M307 731Q428 731 503 669T581 503H456V504Q445 629 302 629Q245 629 208 605T171 536Q171 466 262 442L368 415Q476 390 516 363T578 296T601 207Q601 108 529 48T323 -17L291 -59L292 -60Q310 -56 324 -56Q359 -56 384 -76T410 -131Q410 -174 376 -198T289 -223Q226 -223 186 -200L204 -160Q239 -176 272 -176Q330 -176 330 -135Q330 -119 317 -108T284 -97Q261 -97 245 -107L223 -88L277 -15Q158 -5 90 60T19 238H144Q145 162 194 123T325 85Q396 85 436 115T476 193Q476 262 410 284Q362 302 264 324Q172 344 129 371T66 436T46 521Q46 615 118 672T307 731Z" horiz-adv-x="622" unicode="Ş"/>
			<glyph d="M249 531Q344 531 399 490T465 372H346Q334 441 241 441Q198 441 173 427T147 388Q147 357 178 341T279 313Q389 293 435 257T482 154Q482 81 425 37T269 -13L234 -59L235 -60L267 -56Q301 -56 326 -75T353 -131Q353 -173 319 -198T232 -223Q169 -223 129 -200L147 -160Q183 -176 215 -176Q273 -176 273 -135Q273 -119 260 -108T227 -97Q204 -97 188 -107L166 -88L222 -13H221Q129 -6 77 40T22 166H136Q146 76 253 76Q366 76 368 141Q368 176 336 193T232 224Q147 240 109 259T52 309T33 383Q33 451 91 490T249 531Z" horiz-adv-x="505" unicode="ş"/>
			<glyph d="M307 731Q429 731 505 668T581 503H456V504Q444 629 302 629Q245 629 208 605T171 536Q171 466 262 442L453 392Q518 375 559 324T601 207Q601 106 524 44T317 -17Q182 -17 101 50T19 238H144Q145 161 194 123T325 85Q397 85 436 115T476 193Q476 262 417 281Q377 294 213 337Q46 378 46 521Q46 617 119 674T307 731ZM153 926H245L315 837L386 926H479L371 783H260Z" horiz-adv-x="622" unicode="Š"/>
			<glyph d="M256 531Q349 531 406 490T472 372H353Q340 441 248 441Q206 441 180 427T154 388Q154 361 182 344T285 313Q392 293 440 257T489 154Q489 77 426 31T258 -14Q153 -14 92 33T29 166H143Q153 76 260 76Q375 76 375 141Q375 175 335 194T208 229Q40 261 40 383Q40 452 99 491T256 531ZM88 732H180L250 643L321 732H414L306 589H195Z" horiz-adv-x="505" unicode="š"/>
			<glyph d="M16 714H594V606H367V0H242V606H16ZM238 -50H369V-140Q369 -219 253 -223V-185Q294 -181 298 -149H238Z" horiz-adv-x="611" unicode="Ţ"/>
			<glyph d="M86 672H200V517H303V432H200V150Q200 109 211 97T257 85Q297 85 303 89V1Q252 -5 229 -5Q147 -5 116 25T86 134V432H0V517H86ZM141 -50H272V-140Q272 -219 156 -223V-185Q197 -181 201 -149H141Z" horiz-adv-x="316" unicode="ţ"/>
			<glyph d="M16 714H594V606H367V0H242V606H16ZM143 926H235L305 837L376 926H469L361 783H250Z" horiz-adv-x="611" unicode="Ť"/>
			<glyph d="M86 672H200V517H303V432H200V150Q200 109 211 97T257 85Q297 85 303 89V1Q252 -5 229 -5Q147 -5 116 25T86 134V432H0V517H86ZM305 714H430L349 571H273Z" horiz-adv-x="382" unicode="ť"/>
			<glyph d="M16 714H594V606H367V468H531V403H367V0H242V403H83V468H242V606H16Z" horiz-adv-x="611" unicode="Ŧ"/>
			<glyph d="M81 672H195V517H298V432H195V346H307V281H195V150Q195 109 206 97T256 85Q290 85 298 89V1Q247 -5 223 -5Q147 -5 114 22T81 123V281H-13V346H81V432H-5V517H81Z" horiz-adv-x="311" unicode="ŧ"/>
			<glyph d="M57 714H182V292Q182 181 222 136T350 91Q438 91 478 135T518 289V714H643V252Q643 124 564 53T350 -17Q215 -17 136 54T57 252ZM474 914H530Q523 857 493 828T420 799Q389 799 347 818Q305 836 277 836Q242 836 234 795H177Q186 843 213 875T282 908Q320 908 360 889T424 870Q443 870 455 880T474 914Z" horiz-adv-x="701" unicode="Ũ"/>
			<glyph d="M49 517H163V196Q163 76 262 76Q389 76 389 213V517H503V0H391V72H389Q366 32 326 9T241 -14Q141 -14 95 35T49 184ZM397 720H453Q446 666 416 635T343 605Q323 605 302 611T267 624T237 636T200 642Q165 642 157 601H100Q109 649 136 681T205 714Q229 714 247 708T278 697T312 683T347 676Q367 676 378 686T397 720Z" unicode="ũ"/>
			<glyph d="M57 714H182V292Q182 181 222 136T350 91Q438 91 478 135T518 289V714H643V252Q643 124 564 53T350 -17Q215 -17 136 54T57 252ZM207 883H495V818H207Z" horiz-adv-x="701" unicode="Ū"/>
			<glyph d="M49 517H163V196Q163 76 262 76Q389 76 389 213V517H503V0H391V72H389Q366 32 326 9T241 -14Q141 -14 95 35T49 184ZM136 689H424V624H136Z" unicode="ū"/>
			<glyph d="M57 714H182V292Q182 181 222 136T350 91Q438 91 478 135T518 289V714H643V252Q643 124 564 53T350 -17Q215 -17 136 54T57 252ZM191 925H249Q264 850 356 849Q438 849 457 925H514Q507 857 463 820T348 784Q277 784 237 821T191 925Z" horiz-adv-x="701" unicode="Ŭ"/>
			<glyph d="M49 517H163V196Q163 76 262 76Q389 76 389 213V517H503V0H391V72H389Q366 32 326 9T241 -14Q141 -14 95 35T49 184ZM120 731H178Q193 656 285 655Q323 655 350 673T386 731H443Q435 662 391 626T277 590Q208 590 167 626T120 731Z" unicode="ŭ"/>
			<glyph d="M57 714H182V292Q182 181 222 136T350 91Q438 91 478 135T518 289V714H643V252Q643 124 564 53T350 -17Q215 -17 136 54T57 252ZM352 957Q397 957 426 928T456 854Q456 810 426 781T352 751Q306 752 277 781T248 854Q248 897 277 926T352 957ZM352 915Q326 915 309 897T292 854Q292 829 309 811T352 793Q378 793 395 811T412 854Q412 880 396 897T352 915Z" horiz-adv-x="701" unicode="Ů"/>
			<glyph d="M49 517H163V196Q163 76 262 76Q389 76 389 213V517H503V0H391V72H389Q366 32 326 9T241 -14Q141 -14 95 35T49 184ZM281 777Q327 777 356 747T385 674Q385 632 356 601T281 571Q236 571 206 600T177 674Q177 717 206 747T281 777ZM281 735Q255 735 238 717T221 674Q221 648 239 630T281 613Q307 613 324 629T341 674Q341 700 325 717T281 735Z" unicode="ů"/>
			<glyph d="M57 714H182V292Q182 181 222 136T350 91Q438 91 478 135T518 289V714H643V252Q643 124 564 53T350 -17Q215 -17 136 54T57 252ZM299 926H435L291 783H209ZM498 926H634L490 783H408Z" horiz-adv-x="701" unicode="Ű"/>
			<glyph d="M49 517H163V196Q163 76 262 76Q389 76 389 213V517H503V0H391V72H389Q366 32 326 9T241 -14Q141 -14 95 35T49 184ZM212 732H348L204 589H122ZM411 732H547L403 589H321Z" horiz-adv-x="564" unicode="ű"/>
			<glyph d="M57 714H182V292Q182 210 198 172T251 112T350 91Q411 91 447 111T501 169T518 289V714H643V252Q643 138 578 67T392 -15Q355 -46 336 -71T317 -128Q317 -148 328 -160T357 -173Q387 -173 408 -139L449 -148Q427 -223 344 -223Q301 -223 272 -200T243 -137Q243 -76 330 -16Q197 -10 127 60T57 252Z" horiz-adv-x="701" unicode="Ų"/>
			<glyph d="M48 517H162V196Q162 76 261 76Q388 76 388 213V517H502V0H444Q402 -35 377 -64T353 -128Q353 -149 364 -161T393 -173Q421 -173 444 -139L485 -148Q463 -223 380 -223Q337 -223 308 -200T279 -137Q279 -69 390 0V72H388Q365 31 323 8T240 -14Q140 -14 94 35T48 184Z" unicode="ų"/>
			<glyph d="M-6 714H121L250 168H252L396 714H524L664 168H666L799 714H926L729 0H602L459 546H457L311 0H182ZM404 926H515L623 783H530L459 873L389 783H297Z" horiz-adv-x="921" unicode="Ŵ"/>
			<glyph d="M3 517H124L225 131H227L324 517H439L532 131H534L639 517H755L593 0H476L380 384H378L283 0H163ZM326 732H437L545 589H452L381 679L311 589H219Z" horiz-adv-x="758" unicode="ŵ"/>
			<glyph d="M-18 714H127L316 394L502 714H642L375 280V0H250V280ZM262 926H373L481 783H388L317 873L247 783H155Z" horiz-adv-x="625" unicode="Ŷ"/>
			<glyph d="M3 517H128L263 131H265L396 517H515L316 -23Q280 -125 241 -165T130 -205Q94 -205 52 -199V-103Q98 -110 106 -110Q160 -110 177 -63L199 2ZM208 732H319L427 589H334L263 679L193 589H101Z" horiz-adv-x="518" unicode="ŷ"/>
			<glyph d="M-18 714H127L316 394L502 714H642L375 280V0H250V280ZM175 904H289V796H175ZM347 904H461V796H347Z" horiz-adv-x="625" unicode="Ÿ"/>
			<glyph d="M54 714H597V619L181 108H607V0H22V102L438 606H54ZM360 926H495L353 783H270Z" horiz-adv-x="629" unicode="Ź"/>
			<glyph d="M34 517H454V437L158 90H469V0H14V80L300 427H34ZM283 732H418L276 589H193Z" horiz-adv-x="481" unicode="ź"/>
			<glyph d="M54 714H597V619L181 108H607V0H22V102L438 606H54ZM265 904H379V796H265Z" horiz-adv-x="629" unicode="Ż"/>
			<glyph d="M34 517H454V437L158 90H469V0H14V80L300 427H34ZM183 710H297V602H183Z" horiz-adv-x="481" unicode="ż"/>
			<glyph d="M54 714H597V619L181 108H607V0H22V102L438 606H54ZM159 926H251L321 837L392 926H485L377 783H266Z" horiz-adv-x="629" unicode="Ž"/>
			<glyph d="M34 517H454V437L158 90H469V0H14V80L300 427H34ZM82 732H174L244 643L315 732H408L300 589H189Z" horiz-adv-x="481" unicode="ž"/>
			<glyph d="M424 731Q456 731 496 726L479 636Q455 641 438 641Q409 641 394 634T370 611T354 560L330 438H432L417 353H315L242 -27Q230 -87 181 -128T69 -170H51Q41 -170 -8 -165L7 -75Q33 -80 55 -80Q87 -80 102 -67T124 -23L199 353H108L123 438H215L245 598Q259 667 307 699T424 731Z" horiz-adv-x="541" unicode="ƒ"/>
			<glyph d="M307 731Q429 731 505 668T581 503H456V504Q444 629 302 629Q245 629 208 605T171 536Q171 466 262 442L453 392Q518 375 559 324T601 207Q601 106 524 44T317 -17Q182 -17 101 50T19 238H144Q145 161 194 123T325 85Q397 85 436 115T476 193Q476 262 417 281Q377 294 213 337Q46 378 46 521Q46 617 119 674T307 731ZM244 -50H375V-140Q375 -219 259 -223V-185Q300 -181 304 -149H244Z" horiz-adv-x="622" unicode="Ș"/>
			<glyph d="M256 531Q349 531 406 490T472 372H353Q340 441 248 441Q206 441 180 427T154 388Q154 361 182 344T285 313Q392 293 440 257T489 154Q489 77 426 31T258 -14Q153 -14 92 33T29 166H143Q153 76 260 76Q375 76 375 141Q375 175 335 194T208 229Q40 261 40 383Q40 452 99 491T256 531ZM196 -50H327V-140Q327 -219 211 -223V-185Q252 -181 256 -149H196Z" horiz-adv-x="505" unicode="ș"/>
			<glyph d="M-1 714H577V606H350V0H225V606H-1ZM221 -50H352V-140Q352 -219 236 -223V-185Q277 -181 281 -149H221Z" horiz-adv-x="576" unicode="Ț"/>
			<glyph d="M86 672H200V517H303V432H200V150Q200 109 211 97T257 85Q297 85 303 89V1Q252 -5 229 -5Q147 -5 116 25T86 134V432H0V517H86ZM141 -50H272V-140Q272 -219 156 -223V-185Q197 -181 201 -149H141Z" horiz-adv-x="316" unicode="ț"/>
			<glyph d="M52 732H163L271 589H178L107 679L37 589H-55Z" horiz-adv-x="214" unicode="ˆ"/>
			<glyph d="M-57 732H35L105 643L176 732H269L161 589H50Z" horiz-adv-x="214" unicode="ˇ"/>
			<glyph d="M-69 689H219V624H-69Z" horiz-adv-x="150" unicode="ˉ"/>
			<glyph d="M-50 731H8Q23 656 115 655Q153 655 180 673T216 731H273Q265 662 221 626T107 590Q38 590 -2 626T-50 731Z" horiz-adv-x="223" unicode="˘"/>
			<glyph d="M53 710H167V602H53Z" horiz-adv-x="221" unicode="˙"/>
			<glyph d="M97 777Q143 777 172 747T201 674Q201 632 172 601T97 571Q52 571 22 600T-7 674Q-7 717 22 747T97 777ZM97 735Q71 735 54 717T37 674Q37 648 55 630T97 613Q123 613 140 629T157 674Q157 700 141 717T97 735Z" horiz-adv-x="193" unicode="˚"/>
			<glyph d="M128 0H182Q135 -37 111 -66T88 -128Q88 -148 99 -160T128 -173Q147 -173 159 -163T179 -139L220 -148Q200 -221 115 -223Q71 -223 43 -200T14 -137Q14 -99 45 -65T128 0Z" horiz-adv-x="202" unicode="˛"/>
			<glyph d="M233 720H289Q282 666 252 635T179 605Q159 605 138 611T103 624T73 636T36 642Q1 642 -7 601H-64Q-55 649 -28 681T41 714Q65 714 83 708T114 697T148 683T183 676Q203 676 214 686T233 720Z" horiz-adv-x="225" unicode="˜"/>
			<glyph d="M36 732H172L28 589H-54ZM235 732H371L227 589H145Z" horiz-adv-x="233" unicode="˝"/>
			<glyph d="M276 712H386L670 0H4ZM329 587L149 98H519Z" horiz-adv-x="674" unicode="Δ"/>
			<glyph d="M367 721Q507 721 600 632T693 409Q693 306 644 235T509 138V91H693V0H421V188Q498 204 539 262T581 400Q581 495 520 558T368 622Q276 622 215 557T154 398Q154 317 193 262T312 188V0H41V91H224V138Q132 168 86 240T41 406Q41 494 83 565T200 679T367 721Z" horiz-adv-x="743" unicode="Ω"/>
			<glyph d="M49 517H163V196Q163 76 262 76Q389 76 389 213V517H503V0H391V72H389Q337 -14 247 -14Q194 -14 163 12V-191H49Z" unicode="μ"/>
			<glyph d="M-6 483H556V387H477V133Q477 101 486 90T515 79Q526 79 537 81T559 89V13Q538 3 518 -2T476 -7Q425 -7 400 19T376 118V387H165V0H64V387H-6Z" horiz-adv-x="575" unicode="π"/>
			<glyph d="M-7 326H493V218H-7Z" horiz-adv-x="486" unicode="–"/>
			<glyph d="M123 326H863V218H123Z" horiz-adv-x="986" unicode="—"/>
			<glyph d="M220 714V656Q159 634 159 567H220V432H95V570Q95 619 128 657T220 714Z" horiz-adv-x="315" unicode="‘"/>
			<glyph d="M95 714H220V576Q220 521 185 480T95 432V490Q156 499 156 579H95Z" horiz-adv-x="315" unicode="’"/>
			<glyph d="M95 135H220V-3Q220 -52 185 -93T95 -147V-89Q156 -67 156 0H95Z" horiz-adv-x="315" unicode="‚"/>
			<glyph d="M220 714V656Q160 634 159 567H220V432H95V570Q95 619 128 657T220 714ZM419 714V656Q359 634 358 567H419V432H294V570Q294 617 327 656T419 714Z" horiz-adv-x="514" unicode="“"/>
			<glyph d="M95 714H220V577Q220 530 188 489T96 432H95V490Q156 512 156 579H95ZM294 714H419V576Q419 528 385 488T295 432H294V490Q355 512 355 579H294Z" horiz-adv-x="514" unicode="”"/>
			<glyph d="M95 135H220V-3Q220 -52 185 -93T95 -147V-89Q156 -67 156 0H95ZM294 135H419V-3Q419 -50 386 -90T295 -147H294V-89Q355 -67 355 0H294Z" horiz-adv-x="514" unicode="„"/>
			<glyph d="M216 714H330V517H521V422H330V-160H216V422H25V517H216Z" horiz-adv-x="547" unicode="†"/>
			<glyph d="M216 714H330V517H521V422H330V132H521V37H330V-160H216V37H25V132H216V422H25V517H216Z" horiz-adv-x="547" unicode="‡"/>
			<glyph d="M243 535Q319 534 370 483T422 357Q422 284 370 231T243 178Q167 178 116 231T65 357Q65 428 114 480T243 535Z" horiz-adv-x="487" unicode="•"/>
			<glyph d="M93 135H232V0H93ZM426 135H565V0H426ZM759 135H898V0H759Z" horiz-adv-x="993" unicode="…"/>
			<glyph d="M542 724H615L215 -24H144L541 723ZM210 714Q279 714 319 666T359 536Q359 461 319 416T210 371Q137 371 99 417T61 535Q61 617 101 665T210 714ZM209 654Q146 654 146 533Q146 431 210 431Q274 431 274 533Q274 654 209 654ZM555 329Q625 329 664 281T704 154Q704 79 663 32T555 -14Q486 -14 446 32T406 154Q406 233 445 281T555 329ZM896 329Q967 329 1006 282T1045 154Q1045 79 1005 32T896 -14Q828 -14 787 31T747 154Q747 235 786 282T896 329ZM555 269Q491 269 491 151Q491 46 555 46Q619 46 619 152Q619 269 555 269ZM896 269Q832 269 832 152Q832 46 896 46Q960 46 960 152Q960 269 896 269Z" horiz-adv-x="1104" unicode="‰"/>
			<glyph d="M194 451V348L99 272L194 196V93L39 216V328Z" horiz-adv-x="240" unicode="‹"/>
			<glyph d="M45 451L200 328V216L45 93V196L140 272L45 348Z" horiz-adv-x="239" unicode="›"/>
			<glyph d="M246 724H324L-94 -24H-173Z" horiz-adv-x="151" unicode="⁄"/>
			<glyph d="M375 714Q462 714 553 652L507 561Q443 625 367 625Q304 625 262 579T204 455H468L442 391H197Q196 383 196 356Q196 330 197 323H428L403 260H202Q214 175 259 126T376 76Q426 76 454 89T526 142V31Q457 -13 375 -13Q254 -13 180 55T85 260H8L35 323H80Q78 345 78 356Q78 368 80 391H8L34 455H87Q116 581 189 647T375 714Z" horiz-adv-x="533" unicode="€"/>
			<glyph d="M290 721Q350 721 387 681T424 579Q424 434 241 269V141Q241 106 259 87T307 68Q348 68 395 106H397L435 48Q366 -14 280 -14Q208 -14 169 24T130 122V195L73 142H71L32 202L129 287V537Q129 615 175 668T290 721ZM288 646Q267 646 254 620T241 558V364Q333 464 333 571Q333 605 320 625T288 646Z" horiz-adv-x="490" unicode="ℓ"/>
			<glyph d="M62 714H394V649H268V302H188V649H62ZM478 714H594L707 422L819 714H934V302H859V624H857L734 302H678L555 624H553V302H478Z" horiz-adv-x="1002" unicode="™"/>
			<glyph d="M367 721Q507 721 600 632T693 409Q693 306 644 235T509 138V91H693V0H421V188Q498 204 539 262T581 400Q581 495 520 558T368 622Q276 622 215 557T154 398Q154 317 193 262T312 188V0H41V91H224V138Q132 168 86 240T41 406Q41 494 83 565T200 679T367 721Z" horiz-adv-x="743" unicode="Ω"/>
			<glyph d="M295 535Q407 535 480 459T554 259H150V78Q179 49 215 34T295 19Q358 19 404 47T488 139L523 118Q477 46 425 14T295 -17Q183 -17 110 61T37 259Q37 381 110 458T295 535ZM293 500Q253 500 217 485T150 440V295H441V440Q410 469 373 484T293 500Z" horiz-adv-x="586" unicode="℮"/>
			<glyph d="M231 721Q357 721 428 625T500 358Q500 180 436 84T248 -12Q153 -12 92 52T32 215Q32 313 93 373T244 434Q324 434 391 376L392 422Q392 516 348 577T235 638Q180 638 117 590L60 656Q107 693 145 707T231 721ZM260 354Q205 354 170 314T135 209Q135 147 166 107T252 68Q314 68 351 126T390 257L389 287Q358 322 328 338T260 354Z" horiz-adv-x="536" unicode="∂"/>
			<glyph d="M276 712H386L670 0H4ZM329 587L149 98H519Z" horiz-adv-x="674" unicode="∆"/>
			<glyph d="M53 786H664V-214H556V688H160V-214H53Z" horiz-adv-x="717" unicode="∏"/>
			<glyph d="M32 786H599V688H175L454 292L157 -117H612V-214H19V-128L325 291L32 702Z" horiz-adv-x="632" unicode="∑"/>
			<glyph d="M41 304H545V202H41Z" horiz-adv-x="586" unicode="−"/>
			<glyph d="M246 724H324L-94 -24H-173Z" horiz-adv-x="151" unicode="∕"/>
			<glyph d="M132 376Q163 376 185 353T207 302Q207 271 184 248T132 226Q102 226 80 248T57 302Q57 330 78 352T132 376Z" horiz-adv-x="263" unicode="∙"/>
			<glyph d="M430 786H539L328 -214H227L74 105L24 82L-16 167L127 232L260 -49Z" horiz-adv-x="522" unicode="√"/>
			<glyph d="M590 437Q660 437 707 388T754 262Q754 183 707 133T589 83Q542 83 496 108T396 195Q329 126 290 105T204 85Q131 85 84 134T37 260Q37 338 83 387T201 436Q252 436 297 408T396 318Q450 382 495 409T590 437ZM588 345Q532 345 451 257Q529 175 591 175Q624 175 646 197T668 259Q668 300 645 322T588 345ZM201 344Q168 344 145 319T123 259Q123 222 144 199T204 176Q233 176 269 197T341 257H342Q290 309 259 326T201 344Z" horiz-adv-x="791" unicode="∞"/>
			<glyph d="M353 786Q399 786 428 764T458 713Q458 693 443 678T407 664Q369 664 355 708Q347 729 336 729Q317 729 317 699L319 568L320 1Q320 -113 286 -163T179 -214Q137 -214 107 -194T77 -142Q77 -122 90 -107T125 -93Q143 -93 150 -98T165 -115T180 -145Q186 -160 195 -160Q214 -160 214 -125L211 -14V572Q211 689 245 737T353 786Z" horiz-adv-x="569" unicode="∫"/>
			<glyph d="M162 445Q210 445 294 411T423 378Q452 378 466 398T486 444H554Q546 365 509 321T409 277Q375 277 328 292T229 327T152 346Q123 346 107 324T87 277H19Q27 357 64 401T162 445ZM160 242Q209 242 292 208T421 175Q450 175 465 195T485 241H552Q544 162 507 118T407 74Q373 74 326 89T227 124T150 143Q121 143 105 121T85 74H17Q25 152 62 197T160 242Z" horiz-adv-x="572" unicode="≈"/>
			<glyph d="M390 571L479 526L425 419H547V318H373L313 201H547V99H262L184 -53L95 -7L150 99H28V201H201L262 318H28V419H313Z" horiz-adv-x="575" unicode="≠"/>
			<glyph d="M547 554V447L166 324L547 207V100L28 272V375ZM28 66H547V-35H28Z" horiz-adv-x="575" unicode="≤"/>
			<glyph d="M28 554L547 375V272L28 100V207L408 324L28 447ZM28 66H547V-35H28Z" horiz-adv-x="575" unicode="≥"/>
			<glyph d="M234 747H329L506 356L329 -35H234L58 355ZM281 646L162 356L281 65L403 356Z" horiz-adv-x="564" unicode="◊"/>
			<glyph d="M56 517H170V-48Q170 -128 133 -166T21 -205Q-17 -205 -29 -201V-111Q-8 -115 10 -115Q37 -115 46 -100T56 -45Z" horiz-adv-x="229" unicode=""/>
			<glyph d="M-49 926H85L176 783H93Z" horiz-adv-x="216" unicode=""/>
			<glyph d="M130 926H265L123 783H40Z" horiz-adv-x="215" unicode=""/>
			<glyph d="M52 926H163L271 783H178L107 873L37 783H-55Z" horiz-adv-x="214" unicode=""/>
			<glyph d="M-57 926H35L105 837L176 926H269L161 783H50Z" horiz-adv-x="214" unicode=""/>
			<glyph d="M233 914H289Q282 857 252 828T179 799Q148 799 106 818Q64 836 36 836Q1 836 -7 795H-64Q-55 843 -28 875T41 908Q79 908 119 889T183 870Q202 870 214 880T233 914Z" horiz-adv-x="225" unicode=""/>
			<glyph d="M-44 904H70V796H-44ZM128 904H242V796H128Z" horiz-adv-x="198" unicode=""/>
			<glyph d="M-69 883H219V818H-69Z" horiz-adv-x="150" unicode=""/>
			<glyph d="M-50 925H8Q23 850 115 849Q197 849 216 925H273Q266 857 222 820T107 784Q36 784 -4 821T-50 925Z" horiz-adv-x="223" unicode=""/>
			<glyph d="M97 957Q142 957 171 928T201 854Q201 810 171 781T97 751Q51 752 22 781T-7 854Q-7 897 22 926T97 957ZM97 915Q71 915 54 897T37 854Q37 829 54 811T97 793Q123 793 140 811T157 854Q157 880 141 897T97 915Z" horiz-adv-x="193" unicode=""/>
			<glyph d="M36 926H172L28 783H-54ZM235 926H371L227 783H145Z" horiz-adv-x="233" unicode=""/>
			<glyph d="M53 904H167V796H53Z" horiz-adv-x="221" unicode=""/>
			<glyph d="M111 714H236L155 571H79Z" horiz-adv-x="210" unicode=""/>
			<glyph d="M75 -50H206V-140Q206 -219 90 -223V-185Q131 -181 135 -149H75Z" horiz-adv-x="270" unicode=""/>
			<glyph d="M186 788V750Q145 745 141 714H201V615H70V707Q70 783 186 788Z" horiz-adv-x="270" unicode=""/>
			<glyph d="M-7 718H505V0H-7ZM43 667V50H455V667ZM252 609Q306 609 341 573T376 478Q376 446 364 421T312 357Q278 326 271 311Q264 294 264 234H218L216 253Q216 300 227 328T279 395Q325 436 325 474Q325 508 301 533T249 559Q179 559 167 464L117 472Q131 609 252 609ZM215 184H271V117H215Z" horiz-adv-x="498" unicode=""/>
			<glyph d="M225 714Q279 714 304 707V618Q286 624 252 624Q195 624 195 575V517H292V432H195V0H81V432H-4V517H81V564Q81 644 116 679T225 714ZM367 714H481V606H367ZM367 517H481V0H367Z" horiz-adv-x="532" unicode="ﬁ"/>
			<glyph d="M225 714Q279 714 304 707V618Q286 624 252 624Q195 624 195 575V517H292V432H195V0H81V432H-4V517H81V564Q81 644 116 679T225 714ZM367 714H481V0H367Z" horiz-adv-x="531" unicode="ﬂ"/>
		</font>
</defs>
</svg>
